Mixkatalog
 Einloggen
Login
Passwort

D.J. Time Best Of 2016 Hits: 91  

D.J. Time Best Of 2016


Kurzbeschreibung:
DJ Hot J präsentiert den Mix DJ Time Best Of 2016.
 
Crew/DJ: DJ Hot J Reihe: DJ Time
Stil: House Erscheinungsjahr: 2016
Anzahl Tonträger: 1 Spielzeit: 73:25
Trackliste:
Cue-Informationen:

PERFORMER "Va"
TITLE "D.J. Time Best Of 2016 (Mixed By D.J. Hot J)"
FILE "01-va-d.j._time_best_of_2016_(mixed_by_d.j._hot_j).mp3" MP3
  TRACK 01 AUDIO
    TITLE "Intro"
    PERFORMER "DJ Hot J"
    INDEX 01 00:00:00
  TRACK 02 AUDIO
    TITLE "Don't Be So Shy (Filatov & Karas Extended Mix)"
    PERFORMER "Imany"
    INDEX 01 00:21:06
  TRACK 03 AUDIO
    TITLE "This Girl (Andrey Exx & Sharapov Club Mix)"
    PERFORMER "Kungs & Cookin On 3 Burners"
    INDEX 01 04:21:42
  TRACK 04 AUDIO
    TITLE "Stay A While (Filatov & Karas Extended Mix)"
    PERFORMER "Dimitri Vegas & Like Mike"
    INDEX 01 08:18:07
  TRACK 05 AUDIO
    TITLE "No Worries (Extended Mix)"
    PERFORMER "Disciples & David Guetta"
    INDEX 01 11:28:68
  TRACK 06 AUDIO
    TITLE "Thinking About You"
    PERFORMER "Axwell & Ingrosso"
    INDEX 01 15:44:50
  TRACK 07 AUDIO
    TITLE "Nobody Does It Better (Extended Mix)"
    PERFORMER "Michael Calfan"
    INDEX 01 19:07:19
  TRACK 08 AUDIO
    TITLE "Shy (Club Mix)"
    PERFORMER "The Magician feat. Brayton Bowman"
    INDEX 01 22:00:42
  TRACK 09 AUDIO
    TITLE "Would I Lie To You (Extended)"
    PERFORMER "David Guetta, Chris Willis & Cedric Gervais"
    INDEX 01 26:28:28
  TRACK 10 AUDIO
    TITLE "Wings (Groovefore Rework)"
    PERFORMER "Armand van Helden"
    INDEX 01 30:20:52
  TRACK 11 AUDIO
    TITLE "Trouble (Club Mix)"
    PERFORMER "Offaiah"
    INDEX 01 34:12:67
  TRACK 12 AUDIO
    TITLE "Together (Club Mix)"
    PERFORMER "CID "
    INDEX 01 39:20:47
  TRACK 13 AUDIO
    TITLE "Rhythm Of The Night (Original Extended Mix)"
    PERFORMER "Fedde Le Grand"
    INDEX 01 42:24:72
  TRACK 14 AUDIO
    TITLE "I Wanna Know (Alesso & Deniz Koyu Remix)"
    PERFORMER "Alesso feat. Nico & Vinz"
    INDEX 01 46:40:08
  TRACK 15 AUDIO
    TITLE "Do It Right (Club Mix)"
    PERFORMER "Martin Solveig feat. Tkay Maidza"
    INDEX 01 51:39:61
  TRACK 16 AUDIO
    TITLE "Tonight (Extended Mix)"
    PERFORMER "Don Diablo"
    INDEX 01 55:43:48
  TRACK 17 AUDIO
    TITLE "This Is What You Came For (Bobby Puma Remix)"
    PERFORMER "Calvin Harris feat. Rihanna"
    INDEX 01 58:15:74
  TRACK 18 AUDIO
    TITLE "Turn Me Up (Vip Mix)"
    PERFORMER "MOTi feat. Nabiha"
    INDEX 01 62:21:14
  TRACK 19 AUDIO
    TITLE "Listen To The Talk (Extended Mix)"
    PERFORMER "Chocolate Puma"
    INDEX 01 65:56:66
  TRACK 20 AUDIO
    TITLE "Someone Who Needs Me (Alex Gaudino & Dyson Kellerman
Remix)"
    PERFORMER "Bob Sinclar"
    INDEX 01 69:49:12
Wertung: ()  
Hinzugefügt: 7 January 2022
Bewerte als Erster diesen Mix:
RSS Feed
RSS Feed
Sprache
Deutsch Englisch Französisch
Mixsuche
Suchbegriff
Genauer Wortlaut
Alle Worte (UND)
Ein Wort (ODER)
Statistik
14581 Mixe eingetragen
14271 Tracklisten
Newsletter
E-Mail
Anmelden
Abmelden
SPONSOREN