Mixkatalog
 Einloggen
Login
Passwort

D.J. Time Best Of 2017 Hits: 2  

D.J. Time Best Of 2017


Kurzbeschreibung:
DJ Hot J präsentiert den Mix DJ Time Best Of 2017.
 
Crew/DJ: DJ Hot J Reihe: DJ Time
Stil: House Erscheinungsjahr: 2017
Anzahl Tonträger: 1 Spielzeit: 78:18
Trackliste:
  1. DJ Hot J - Intro
  2. Kygo & Selena Gomez - It Ain't Me (Tiësto's AFTRHRS Remix)
  3. Armin van Buuren & Garibay feat. Olaf Blackwood - I Need You (Filatov & Karas Remix)
  4. Burak Yeter - Echo (Filatov & Karas remix)
  5. Filatov & Karas - Time Won't Wait (Extended Mix)
  6. Cristian Marchi feat. Barbara O'Neil - Your Loving Arms (Extended Mix)
  7. Fedde Le Grand & Dannic feat. CoCo Star - Coco's Miracle (Extended Mix)
  8. Martin Solveig feat. Ina Wroldsen - Places (Club Mix)
  9. Tiësto feat. Bright Sparks - On My Way (Extended Mix)
  10. James Hype & Kelli-Leigh - More Than Friends (Extended Mix)
  11. Disciples - On My Mind (Denis First Remix)
  12. Calvin Harris feat. Frank Ocean & Migos - Slide (Kay Stafford Club Mix Dirty)
  13. Jamiroquai - Cloud 9 (Purple Disco Machine Remix)
  14. The Magician & Julian Perretta - Tied Up (Balearic Vocal Dub)
  15. Duke Dumont & Gorgon City feat. Naations - Real Life (Extended Mix)
  16. The Trixx & Steven Maar feat. Christy Million - Working Hard (Extended Mix)
  17. Michael Jackson - Thriller (Steve Aoki Midnight Hour Remix)
  18. J Balvin & Willy William - Mi Gente (Genairo Nvilla's King Of Drums Rework)
  19. CamelPhat & Elderbrook - Cola (Robin Schulz Extended Remix)
  20. The Chainsmokers - Something Just Like This (Don Diablo Remix)
  21. Dankann - How Deep Is Your Love (Extended Mix)
  22. Erick Morillo, Kryder feat. Bella Hunter - Waves (Extended Vocal Mix)
  23. Axwell / Ingrosso - More Than You Know (Extended Mix)
Cue-Informationen:

PERFORMER "Va"
TITLE "D.J. Time Best Of 2017 (Mixed By D.J. Hot J)"
FILE "01-va-d.j._time_best_of_2017_(mixed_by_d.j._hot_j).mp3" MP3
  TRACK 01 AUDIO
    TITLE "Intro"
    PERFORMER "DJ Hot J"
    INDEX 01 00:00:00
  TRACK 02 AUDIO
    TITLE "It Ain't Me (Tiësto's AFTRHRS Remix)"
    PERFORMER "Kygo & Selena Gomez"
    INDEX 01 00:12:67
  TRACK 03 AUDIO
    TITLE "I Need You (Filatov & Karas Remix)"
    PERFORMER "Armin van Buuren & Garibay feat. Olaf Blackwood"
    INDEX 01 02:31:48
  TRACK 04 AUDIO
    TITLE "Echo (Filatov & Karas remix)"
    PERFORMER "Burak Yeter"
    INDEX 01 06:07:47
  TRACK 05 AUDIO
    TITLE "Time Won't Wait (Extended Mix)"
    PERFORMER "Filatov & Karas"
    INDEX 01 09:51:46
  TRACK 06 AUDIO
    TITLE "Your Loving Arms (Extended Mix)"
    PERFORMER "Cristian Marchi feat. Barbara O'neil"
    INDEX 01 13:34:69
  TRACK 07 AUDIO
    TITLE "Coco's Miracle (Extended Mix)"
    PERFORMER "Fedde Le Grand & Dannic feat. CoCo Star"
    INDEX 01 16:54:58
  TRACK 08 AUDIO
    TITLE "Places (Club Mix)"
    PERFORMER "Martin Solveig feat. Ina Wroldsen"
    INDEX 01 20:38:20
  TRACK 09 AUDIO
    TITLE "On My Way (Extended Mix)"
    PERFORMER "Tiësto feat. Bright Sparks"
    INDEX 01 24:13:06
  TRACK 10 AUDIO
    TITLE "More Than Friends (Extended Mix)"
    PERFORMER "James Hype & Kelli-Leigh"
    INDEX 01 27:48:28
  TRACK 11 AUDIO
    TITLE "On My Mind (Denis First Remix)"
    PERFORMER "Disciples "
    INDEX 01 31:07:35
  TRACK 12 AUDIO
    TITLE "Slide (Kay Stafford Club Mix Dirty)"
    PERFORMER "Calvin Harris feat. Frank Ocean & Migos"
    INDEX 01 34:28:17
  TRACK 13 AUDIO
    TITLE "Cloud 9 (Purple Disco Machine Remix)"
    PERFORMER "Jamiroquai"
    INDEX 01 37:40:37
  TRACK 14 AUDIO
    TITLE "Tied Up (Balearic Vocal Dub)"
    PERFORMER "The Magician & Julian Perretta"
    INDEX 01 43:18:62
  TRACK 15 AUDIO
    TITLE "Real Life (Extended Mix)"
    PERFORMER "Duke Dumont & Gorgon City feat. Naations"
    INDEX 01 45:52:44
  TRACK 16 AUDIO
    TITLE "Working Hard (Extended Mix)"
    PERFORMER "The Trixx & Steven Maar feat. Christy Million"
    INDEX 01 49:35:43
  TRACK 17 AUDIO
    TITLE "Thriller (Steve Aoki Midnight Hour Remix)"
    PERFORMER "Michael Jackson"
    INDEX 01 53:10:71
  TRACK 18 AUDIO
    TITLE "Mi Gente (Genairo Nvilla's King Of Drums Rework)"
    PERFORMER "J Balvin & Willy William"
    INDEX 01 58:10:56
  TRACK 19 AUDIO
    TITLE "Cola (Robin Schulz Extended Remix)"
    PERFORMER "CamelPhat & Elderbrook"
    INDEX 01 60:36:63
  TRACK 20 AUDIO
    TITLE "Something Just Like This (Don Diablo Remix)"
    PERFORMER "The Chainsmokers"
    INDEX 01 64:37:09
  TRACK 21 AUDIO
    TITLE "How Deep Is Your Love (Extended Mix)"
    PERFORMER "Dankann"
    INDEX 01 67:18:47
  TRACK 22 AUDIO
    TITLE "Waves (Extended Vocal Mix)"
    PERFORMER "Erick Morillo, Kryder feat. Bella Hunter"
    INDEX 01 71:09:19
  TRACK 23 AUDIO
    TITLE "More Than You Know (Extended Mix)"
    PERFORMER "Axwell / Ingrosso"
    INDEX 01 74:44:42
Wertung: ()   Hinzugefügt: 7 January 2022
Bewerte als Erster diesen Mix:
RSS Feed
RSS Feed
Sprache
Deutsch Englisch Französisch
Mixsuche
Suchbegriff
Genauer Wortlaut
Alle Worte (UND)
Ein Wort (ODER)
Statistik
14805 Mixe eingetragen
14492 Tracklisten
Newsletter
E-Mail
Anmelden
Abmelden
SPONSOREN