Mixkatalog
 Einloggen
Login
Passwort

D.J. Time Best Of 2018 Hits: 91  

D.J. Time Best Of 2018


Kurzbeschreibung:
DJ Hot J präsentiert den Mix DJ Time Best Of 2018.
 
Crew/DJ: DJ Hot J Reihe: DJ Time
Stil: House Erscheinungsjahr: 2018
Anzahl Tonträger: 1 Spielzeit: 78:30
Trackliste:
Cue-Informationen:

PERFORMER "Va"
TITLE "D.J. Time Best Of 2018 (Mixed By D.J. Hot J)"
FILE "01-va-d.j._time_best_of_2018_(mixed_by_d.j._hot_j).mp3" MP3
  TRACK 01 AUDIO
    TITLE "Intro"
    PERFORMER "DJ Hot J"
    INDEX 01 00:00:00
  TRACK 02 AUDIO
    TITLE "When Somebody (Extended Mix)"
    PERFORMER "Russell Small, DNO P"
    INDEX 01 00:13:45
  TRACK 03 AUDIO
    TITLE "Electricity (Mk Remix)"
    PERFORMER "Silk City feat. Dua Lipa"
    INDEX 01 03:13:37
  TRACK 04 AUDIO
    TITLE "Promises (Mousse T.'s Extended Disco Shizzle Remix)"
    PERFORMER "Calvin Harris & Sam Smith"
    INDEX 01 07:40:67
  TRACK 05 AUDIO
    TITLE "Feel My Needs (Purple Disco Machine Extended Mix)"
    PERFORMER "Weiss (UK)"
    INDEX 01 12:22:32
  TRACK 06 AUDIO
    TITLE "In Arms (Extended Mix)"
    PERFORMER "Ferreck Dawn & Robosonic"
    INDEX 01 17:11:06
  TRACK 07 AUDIO
    TITLE "Flames (P!nk Panda Extended Mix)"
    PERFORMER "David Guetta feat. Sia"
    INDEX 01 21:20:55
  TRACK 08 AUDIO
    TITLE "I Could Be Wrong (Extended Mix)"
    PERFORMER "Lucas & Steve X Brandy"
    INDEX 01 23:52:63
  TRACK 09 AUDIO
    TITLE "Inhale (Clean) (Extended)"
    PERFORMER "Duke Dumont & Ebenezer"
    INDEX 01 26:59:24
  TRACK 10 AUDIO
    TITLE "Gotta Get Away (Extended Mix)"
    PERFORMER "Chocolate Puma feat. Chateau"
    INDEX 01 30:16:21
  TRACK 11 AUDIO
    TITLE "Feel My Love (Extended Mix)"
    PERFORMER "Jack Wins feat. Rae Hall"
    INDEX 01 33:39:29
  TRACK 12 AUDIO
    TITLE "Therapy (Throttle Extended Remix)"
    PERFORMER "Armin van Buuren feat. James Newman"
    INDEX 01 36:58:24
  TRACK 13 AUDIO
    TITLE "(It Happens) Sometimes (Extended Mix)"
    PERFORMER "Jack Back"
    INDEX 01 41:31:28
  TRACK 14 AUDIO
    TITLE "Joy (Extended Mix)"
    PERFORMER "Kokiri"
    INDEX 01 46:37:26
  TRACK 15 AUDIO
    TITLE "Satisfy (Extended Mix)"
    PERFORMER "Mercer feat. Ron Carroll"
    INDEX 01 50:16:39
  TRACK 16 AUDIO
    TITLE "Survive (Vip Mix)"
    PERFORMER "Don Diablo feat. Emeli Sande & Gucci Mane"
    INDEX 01 54:07:11
  TRACK 17 AUDIO
    TITLE "Jackie Chan (Extended Mix)"
    PERFORMER "Tiësto & Dzeko feat. Preme & Post Malone"
    INDEX 01 57:03:64
  TRACK 18 AUDIO
    TITLE "In My Mind (Shnaps & Kolya Funk Remix)"
    PERFORMER "Dynoro & Gigi D'agostino"
    INDEX 01 61:13:34
  TRACK 19 AUDIO
    TITLE "Fine Night"
    PERFORMER "Fedde Le Grand feat. Kirsty Hawkshaw"
    INDEX 01 63:33:47
  TRACK 20 AUDIO
    TITLE "So Long (Vincent & Diaz Remix)"
    PERFORMER "Malfa"
    INDEX 01 66:14:71
  TRACK 21 AUDIO
    TITLE "Breach (Walk Alone) (Extended Mix)"
    PERFORMER "Martin Garrix & Blinders"
    INDEX 01 69:19:18
  TRACK 22 AUDIO
    TITLE "I Believe (Lumberjack Remix)"
    PERFORMER "Bob Sinclar feat. Tonino Speciale"
    INDEX 01 72:19:53
  TRACK 23 AUDIO
    TITLE "Dancing Alone (Club Mix)"
    PERFORMER "Axwell Ingrosso, ROMANS"
    INDEX 01 75:16:17
Wertung: ()  
Hinzugefügt: 6 January 2022
Bewerte als Erster diesen Mix:
RSS Feed
RSS Feed
Sprache
Deutsch Englisch Französisch
Mixsuche
Suchbegriff
Genauer Wortlaut
Alle Worte (UND)
Ein Wort (ODER)
Statistik
14581 Mixe eingetragen
14271 Tracklisten
Newsletter
E-Mail
Anmelden
Abmelden
SPONSOREN