Mixkatalog
 Einloggen
Login
Passwort

D.J. Time Best Of 2021 Hits: 1  

D.J. Time Best Of 2021


Kurzbeschreibung:
DJ Hot J präsentiert den Mix DJ Time Best Of 2021.
 
Crew/DJ: DJ Hot J Reihe: DJ Time
Stil: House Erscheinungsjahr: 2021
Anzahl Tonträger: 1 Spielzeit: 76:21
Trackliste:
  1. DJ Hot J - Intro
  2. Elton John & Dua Lipa - Cold Heart (PNAU Extended)
  3. Purple Disco Machine feat. Moss Kena & The Knocks - Fireworks (Extended Mix)
  4. Spiller feat. Sophie Ellis-Bextor - Groovejet (Purple Disco Machine & Lorenz Rhode Extended Remix)
  5. Kim Kaey - El Ritmo (Extended Mix)
  6. Milk & Sugar - Let The Sun Shine (Purple Disco Machine Extended Remix)
  7. Armand van Helden & Meck feat. Leo Sayer - ThunderIn My Heart Again (Nick Reach Up Extended Remix)
  8. Oliver Heldens feat. Syd Silvair - Never Look Back (Extended Mix)
  9. Boris Brejcha feat. Arctic Lake - House Music (Extended Mix)
  10. DJ Snake feat. Selena Gomez - Selfish Love (Tiësto Extended Remix)
  11. Farruko - Pepas (Tiësto Remix)
  12. Shouse - Love Tonight (Robin Schulz Extended Remix)
  13. Madison Mars X 71 Digits - Out Of Touch (71 Digits Extended Edit)
  14. Albina - Tick-Tock (Stefy De Cico Extended Remix)
  15. Tiësto & KAROL G - Don't Be Shy (Extended Mix)
  16. Armin van Buuren & The Stickmen Project - No Fun (Extended Mix)
  17. ATB X Topic & A7s - Your Love (9pm) (Extended Mix)
  18. Ofenbach feat. Lagique - Wasted Love (Extended Mix)
  19. Joel Corry & David Guetta feat. Raye - Bed (David Guetta Festival Mix)
  20. Swedish House Mafia & The Weeknd - Moth To A Flame (Festival Bootleg)
  21. Afrojack, Lucas & Steve, DubVision - Anywhere With You (Extended Mix)
  22. Black Eyed Peas & Shakira - Girl Like Me (Twocolors Extended Remix)
Cue-Informationen:

REM APPLICATION "EZ CD Audio Converter 9.5.2 [64-bit]"
PERFORMER "Va"
TITLE "D.J. Time Best Of 2021 (Mixed By D.J. Hot J)"
REM DATE "2021"
FILE "01-va-d.j._time_best_of_2021_(mixed_by_d.j._hot_j).mp3" MP3
  TRACK 01 AUDIO
    PERFORMER "DJ Hot J"
    TITLE "Intro"
    INDEX 01 00:00:00
  TRACK 02 AUDIO
    PERFORMER "Elton John & Dua Lipa"
    TITLE "Cold Heart (PNAU Extended)"
    INDEX 01 00:21:13
  TRACK 03 AUDIO
    PERFORMER "Purple Disco Machine feat. Moss Kena & The Knocks"
    TITLE "Fireworks (Extended Mix)"
    INDEX 01 03:36:29
  TRACK 04 AUDIO
    PERFORMER "Spiller feat. Sophie Ellis-Bextor"
    TITLE "Groovejet (Purple Disco Machine & Lorenz Rhode Extended
Remix)"
    INDEX 01 08:29:20
  TRACK 05 AUDIO
    PERFORMER "Kim Kaey"
    TITLE "El Ritmo (Extended Mix)"
    INDEX 01 14:30:42
  TRACK 06 AUDIO
    PERFORMER "Milk & Sugar"
    TITLE "Let The Sun Shine (Purple Disco Machine Extended Remix)"
    INDEX 01 17:13:24
  TRACK 07 AUDIO
    PERFORMER "Armand van Helden & Meck feat. Leo Sayer"
    TITLE "ThunderIn My Heart Again (Nick Reach Up Extended Remix)"
    INDEX 01 22:38:32
  TRACK 08 AUDIO
    PERFORMER "Oliver Heldens feat. Syd Silvair"
    TITLE "Never Look Back (Extended Mix)"
    INDEX 01 26:03:45
  TRACK 09 AUDIO
    PERFORMER "Boris Brejcha feat. Arctic Lake"
    TITLE "House Music (Extended Mix)"
    INDEX 01 30:11:26
  TRACK 10 AUDIO
    PERFORMER "DJ Snake feat. Selena Gomez"
    TITLE "Selfish Love (Tiësto Extended Remix)"
    INDEX 01 35:12:37
  TRACK 11 AUDIO
    PERFORMER "Farruko"
    TITLE "Pepas (Tiësto Remix)"
    INDEX 01 37:32:47
  TRACK 12 AUDIO
    PERFORMER "Shouse"
    TITLE "Love Tonight (Robin Schulz Extended Remix)"
    INDEX 01 40:53:59
  TRACK 13 AUDIO
    PERFORMER "Madison Mars X 71 Digits"
    TITLE "Out Of Touch (71 Digits Extended Edit)"
    INDEX 01 45:09:25
  TRACK 14 AUDIO
    PERFORMER "Albina"
    TITLE "Tick-Tock (Stefy De Cico Extended Remix)"
    INDEX 01 47:51:69
  TRACK 15 AUDIO
    PERFORMER "Tiësto & KAROL G"
    TITLE "Don't Be Shy (Extended Mix)"
    INDEX 01 50:59:58
  TRACK 16 AUDIO
    PERFORMER "Armin van Buuren & The Stickmen Project"
    TITLE "No Fun (Extended Mix)"
    INDEX 01 53:49:72
  TRACK 17 AUDIO
    PERFORMER "ATB X Topic & A7s"
    TITLE "Your Love (9pm) (Extended Mix)"
    INDEX 01 56:24:60
  TRACK 18 AUDIO
    PERFORMER "Ofenbach feat. Lagique"
    TITLE "Wasted Love (Extended Mix)"
    INDEX 01 59:24:62
  TRACK 19 AUDIO
    PERFORMER "Joel Corry & David Guetta feat. Raye"
    TITLE "Bed (David Guetta Festival Mix)"
    INDEX 01 62:22:62
  TRACK 20 AUDIO
    PERFORMER "Swedish House Mafia & The Weeknd"
    TITLE "Moth To A Flame (Festival Bootleg)"
    INDEX 01 65:46:36
  TRACK 21 AUDIO
    PERFORMER "Afrojack, Lucas & Steve, DubVision"
    TITLE "Anywhere With You (Extended Mix)"
    INDEX 01 69:36:57
  TRACK 22 AUDIO
    PERFORMER "Black Eyed Peas & Shakira"
    TITLE "Girl Like Me (Twocolors Extended Remix)"
    INDEX 01 72:45:03
Wertung: ()   Hinzugefügt: 6 January 2022
Bewerte als Erster diesen Mix:
RSS Feed
RSS Feed
Sprache
Deutsch Englisch Französisch
Mixsuche
Suchbegriff
Genauer Wortlaut
Alle Worte (UND)
Ein Wort (ODER)
Statistik
14805 Mixe eingetragen
14492 Tracklisten
Newsletter
E-Mail
Anmelden
Abmelden
SPONSOREN