Mixkatalog
 Einloggen
Login
Passwort

Yearmix 1981 Hits: 114  

Yearmix 1981


Kurzbeschreibung:
Discomixes präsentiert den Yearmix 1981, gemixt von Vladmix.
 
Crew/DJ: Discomixes Reihe: Yearmix
Stil: Pop Erscheinungsjahr: 2020
Anzahl Tonträger: 1 Spielzeit: 70:25
Trackliste:
Cue-Informationen:

FILE "filename.mp3" MP3
  TRACK 01 AUDIO
    INDEX 01 00:00:00
  TRACK 02 AUDIO
    INDEX 01 02:31:30
  TRACK 03 AUDIO
    INDEX 01 04:12:26
  TRACK 04 AUDIO
    INDEX 01 05:40:35
  TRACK 05 AUDIO
    INDEX 01 07:15:31
  TRACK 06 AUDIO
    INDEX 01 08:51:21
  TRACK 07 AUDIO
    INDEX 01 10:37:16
  TRACK 08 AUDIO
    INDEX 01 12:06:74
  TRACK 09 AUDIO
    INDEX 01 13:39:17
  TRACK 10 AUDIO
    INDEX 01 14:50:67
  TRACK 11 AUDIO
    INDEX 01 16:42:20
  TRACK 12 AUDIO
    INDEX 01 18:40:06
  TRACK 13 AUDIO
    INDEX 01 20:18:39
  TRACK 14 AUDIO
    INDEX 01 21:28:19
  TRACK 15 AUDIO
    INDEX 01 22:32:26
  TRACK 16 AUDIO
    INDEX 01 23:46:00
  TRACK 17 AUDIO
    INDEX 01 25:35:62
  TRACK 18 AUDIO
    INDEX 01 27:32:56
  TRACK 19 AUDIO
    INDEX 01 28:58:21
  TRACK 20 AUDIO
    INDEX 01 30:33:41
  TRACK 21 AUDIO
    INDEX 01 32:09:06
  TRACK 22 AUDIO
    INDEX 01 33:36:38
  TRACK 23 AUDIO
    INDEX 01 35:07:06
  TRACK 24 AUDIO
    INDEX 01 36:57:74
  TRACK 25 AUDIO
    INDEX 01 38:23:60
  TRACK 26 AUDIO
    INDEX 01 40:02:09
  TRACK 27 AUDIO
    INDEX 01 41:51:00
  TRACK 28 AUDIO
    INDEX 01 43:22:16
  TRACK 29 AUDIO
    INDEX 01 44:45:58
  TRACK 30 AUDIO
    INDEX 01 51:28:06
  TRACK 31 AUDIO
    INDEX 01 52:56:12
  TRACK 32 AUDIO
    INDEX 01 54:14:73
  TRACK 33 AUDIO
    INDEX 01 56:07:43
  TRACK 34 AUDIO
    INDEX 01 58:03:57
  TRACK 35 AUDIO
    INDEX 01 59:31:15
  TRACK 36 AUDIO
    INDEX 01 61:14:38
  TRACK 37 AUDIO
    INDEX 01 62:41:00
  TRACK 38 AUDIO
    INDEX 01 64:18:27
  TRACK 39 AUDIO
    INDEX 01 65:52:31
  TRACK 40 AUDIO
    INDEX 01 67:45:69
Wertung: ()  
Hinzugefügt: 11 February 2021
Bewerte als Erster diesen Mix:
RSS Feed
RSS Feed
Sprache
Deutsch Englisch Französisch
Mixsuche
Suchbegriff
Genauer Wortlaut
Alle Worte (UND)
Ein Wort (ODER)
Statistik
13381 Mixe eingetragen
13087 Tracklisten
Newsletter
E-Mail
Anmelden
Abmelden
SPONSOREN