Mixkatalog
 Einloggen
Login
Passwort

The Sound Of The 80s II Hits: 217  

The Sound Of The 80s II


Kurzbeschreibung:
Deep präsentiert The Sound Of The 80s Volume 2.
 
Crew/DJ: Deep Reihe: Deep 80ties
Stil: Pop Erscheinungsjahr: 2003
CDs: 1 Spielzeit: 74:58
Trackliste:
Cue-Informationen:

FILE "filename.mp3" MP3
  TRACK 01 AUDIO
    INDEX 01 00:00:00
  TRACK 02 AUDIO
    INDEX 01 00:45:29
  TRACK 03 AUDIO
    INDEX 01 05:31:46
  TRACK 04 AUDIO
    INDEX 01 10:53:38
  TRACK 05 AUDIO
    INDEX 01 15:44:38
  TRACK 06 AUDIO
    INDEX 01 20:27:38
  TRACK 07 AUDIO
    INDEX 01 25:08:38
  TRACK 08 AUDIO
    INDEX 01 29:41:38
  TRACK 09 AUDIO
    INDEX 01 34:25:38
  TRACK 10 AUDIO
    INDEX 01 38:51:38
  TRACK 11 AUDIO
    INDEX 01 43:57:38
  TRACK 12 AUDIO
    INDEX 01 49:05:38
  TRACK 13 AUDIO
    INDEX 01 51:15:38
  TRACK 14 AUDIO
    INDEX 01 59:37:38
  TRACK 15 AUDIO
    INDEX 01 65:06:38
  TRACK 16 AUDIO
    INDEX 01 70:58:38
Wertung: (1)  
Hinzugefügt: 9 July 2011
RSS Feed
RSS Feed
Sprache
Deutsch Englisch Französisch
Mixsuche
Suchbegriff
Genauer Wortlaut
Alle Worte (UND)
Ein Wort (ODER)
Statistik
34691 Mixe eingetragen
32812 Tracklisten
Newsletter
E-Mail
Anmelden
Abmelden
SPONSOREN