Mixkatalog
 Einloggen
Login
Passwort

Freestyle Highlights Hits: 1  

Freestyle Highlights


Kurzbeschreibung:
Zyx präsentiert Freestyle Highlights Nonstop-Megamix.
 
Crew/DJ: Zyx Reihe: Freestyle Highlights
Stil: Freestyle Erscheinungsjahr: 1999
CDs: 1 Spielzeit: 51:04
Trackliste:
Cue-Informationen:

FILE "filename.mp3" MP3
  TRACK 01 AUDIO
    INDEX 01 00:00:00
  TRACK 02 AUDIO
    INDEX 01 01:57:25
  TRACK 03 AUDIO
    INDEX 01 02:06:00
  TRACK 04 AUDIO
    INDEX 01 04:47:46
  TRACK 05 AUDIO
    INDEX 01 06:03:27
  TRACK 06 AUDIO
    INDEX 01 08:26:44
  TRACK 07 AUDIO
    INDEX 01 10:34:02
  TRACK 08 AUDIO
    INDEX 01 12:10:68
  TRACK 09 AUDIO
    INDEX 01 14:34:49
  TRACK 10 AUDIO
    INDEX 01 16:47:71
  TRACK 11 AUDIO
    INDEX 01 18:39:32
  TRACK 12 AUDIO
    INDEX 01 20:38:64
  TRACK 13 AUDIO
    INDEX 01 22:22:22
  TRACK 14 AUDIO
    INDEX 01 24:16:43
  TRACK 15 AUDIO
    INDEX 01 26:15:69
  TRACK 16 AUDIO
    INDEX 01 28:18:71
  TRACK 17 AUDIO
    INDEX 01 30:37:57
  TRACK 18 AUDIO
    INDEX 01 34:16:69
  TRACK 19 AUDIO
    INDEX 01 34:31:68
  TRACK 20 AUDIO
    INDEX 01 36:07:68
  TRACK 21 AUDIO
    INDEX 01 38:29:25
  TRACK 22 AUDIO
    INDEX 01 40:30:71
  TRACK 23 AUDIO
    INDEX 01 42:02:65
  TRACK 24 AUDIO
    INDEX 01 43:34:49
  TRACK 25 AUDIO
    INDEX 01 44:35:64
  TRACK 26 AUDIO
    INDEX 01 47:09:12
  TRACK 27 AUDIO
    INDEX 01 49:15:03
  TRACK 28 AUDIO
    INDEX 01 50:31:23
Wertung: (1)  
Hinzugefügt: 8 July 2011
RSS Feed
RSS Feed
Sprache
Deutsch Englisch Französisch
Mixsuche
Suchbegriff
Genauer Wortlaut
Alle Worte (UND)
Ein Wort (ODER)
Statistik
29581 Mixe eingetragen
28170 Tracklisten
Newsletter
E-Mail
Anmelden
Abmelden
SPONSOREN