Mixkatalog
 Einloggen
Login
Passwort

Workout Session 2019 Hits: 96  

Kein Bild


Kurzbeschreibung:
Mix-Addict pres. Workout Session 2019.
 
Crew/DJ: Mix-Addict Reihe: Workout Mix
Stil: Dance Erscheinungsjahr: 2020
Anzahl Tonträger: 1 Spielzeit: 73:47
Trackliste:
Cue-Informationen:

FILE "filename.mp3" MP3
  TRACK 01 AUDIO
    INDEX 01 00:00:00
  TRACK 02 AUDIO
    INDEX 01 01:27:32
  TRACK 03 AUDIO
    INDEX 01 03:01:53
  TRACK 04 AUDIO
    INDEX 01 04:13:53
  TRACK 05 AUDIO
    INDEX 01 05:08:20
  TRACK 06 AUDIO
    INDEX 01 06:31:51
  TRACK 07 AUDIO
    INDEX 01 08:00:14
  TRACK 08 AUDIO
    INDEX 01 09:33:34
  TRACK 09 AUDIO
    INDEX 01 11:06:31
  TRACK 10 AUDIO
    INDEX 01 12:29:17
  TRACK 11 AUDIO
    INDEX 01 13:36:34
  TRACK 12 AUDIO
    INDEX 01 15:40:48
  TRACK 13 AUDIO
    INDEX 01 17:16:23
  TRACK 14 AUDIO
    INDEX 01 18:38:41
  TRACK 15 AUDIO
    INDEX 01 19:58:55
  TRACK 16 AUDIO
    INDEX 01 21:33:55
  TRACK 17 AUDIO
    INDEX 01 23:07:05
  TRACK 18 AUDIO
    INDEX 01 24:13:55
  TRACK 19 AUDIO
    INDEX 01 25:34:43
  TRACK 20 AUDIO
    INDEX 01 27:37:05
  TRACK 21 AUDIO
    INDEX 01 28:57:05
  TRACK 22 AUDIO
    INDEX 01 30:30:30
  TRACK 23 AUDIO
    INDEX 01 31:23:55
  TRACK 24 AUDIO
    INDEX 01 33:08:55
  TRACK 25 AUDIO
    INDEX 01 34:28:55
  TRACK 26 AUDIO
    INDEX 01 36:13:55
  TRACK 27 AUDIO
    INDEX 01 37:35:30
  TRACK 28 AUDIO
    INDEX 01 39:09:70
  TRACK 29 AUDIO
    INDEX 01 40:16:10
  TRACK 30 AUDIO
    INDEX 01 41:35:17
  TRACK 31 AUDIO
    INDEX 01 43:10:42
  TRACK 32 AUDIO
    INDEX 01 44:44:20
  TRACK 33 AUDIO
    INDEX 01 45:38:38
  TRACK 34 AUDIO
    INDEX 01 46:47:41
  TRACK 35 AUDIO
    INDEX 01 48:22:34
  TRACK 36 AUDIO
    INDEX 01 49:33:60
  TRACK 37 AUDIO
    INDEX 01 51:16:58
  TRACK 38 AUDIO
    INDEX 01 52:21:69
  TRACK 39 AUDIO
    INDEX 01 52:47:39
  TRACK 40 AUDIO
    INDEX 01 53:38:54
  TRACK 41 AUDIO
    INDEX 01 54:36:24
  TRACK 42 AUDIO
    INDEX 01 55:40:24
  TRACK 43 AUDIO
    INDEX 01 56:58:54
  TRACK 44 AUDIO
    INDEX 01 58:02:54
  TRACK 45 AUDIO
    INDEX 01 59:19:39
  TRACK 46 AUDIO
    INDEX 01 60:15:39
  TRACK 47 AUDIO
    INDEX 01 60:41:09
  TRACK 48 AUDIO
    INDEX 01 61:32:24
  TRACK 49 AUDIO
    INDEX 01 61:57:69
  TRACK 50 AUDIO
    INDEX 01 63:08:24
  TRACK 51 AUDIO
    INDEX 01 63:59:39
  TRACK 52 AUDIO
    INDEX 01 65:30:54
  TRACK 53 AUDIO
    INDEX 01 66:21:69
  TRACK 54 AUDIO
    INDEX 01 67:37:09
  TRACK 55 AUDIO
    INDEX 01 68:41:66
  TRACK 56 AUDIO
    INDEX 01 70:06:33
  TRACK 57 AUDIO
    INDEX 01 71:39:40
  TRACK 58 AUDIO
    INDEX 01 72:58:70
Wertung: (2)  
Hinzugefügt: 8 February 2020
RSS Feed
RSS Feed
Sprache
Deutsch Englisch Französisch
Mixsuche
Suchbegriff
Genauer Wortlaut
Alle Worte (UND)
Ein Wort (ODER)
Statistik
12816 Mixe eingetragen
12541 Tracklisten
Newsletter
E-Mail
Anmelden
Abmelden
SPONSOREN