Mixkatalog
 Einloggen
Login
Passwort

Unexpected Mix 5 Hits: 60  

Unexpected Mix 5


Kurzbeschreibung:
Mix-Addict präsentiert den Unexpected Mix Volume 5. The Italodance 2k Edition inspiriert vom Deep Italo 5, enthalten auf dem Deep Dance 65 und DJ Bourg's Il Novantescion Mixen.
 
Crew/DJ: Mix-Addict Reihe: Unexpected Mix
Stil: Italo Erscheinungsjahr: 2019
Anzahl Tonträger: 1 Spielzeit: 78:13
Trackliste:
Cue-Informationen:

FILE "filename.mp3" MP3
  TRACK 01 AUDIO
    INDEX 01 00:00:00
  TRACK 02 AUDIO
    INDEX 01 10:32:63
  TRACK 03 AUDIO
    INDEX 01 20:29:74
  TRACK 04 AUDIO
    INDEX 01 30:29:29
  TRACK 05 AUDIO
    INDEX 01 39:52:63
  TRACK 06 AUDIO
    INDEX 01 50:10:69
  TRACK 07 AUDIO
    INDEX 01 59:38:50
  TRACK 08 AUDIO
    INDEX 01 69:03:40
Wertung: (5)  
Hinzugefügt: 12 January 2020
RSS Feed
RSS Feed
Sprache
Deutsch Englisch Französisch
Mixsuche
Suchbegriff
Genauer Wortlaut
Alle Worte (UND)
Ein Wort (ODER)
Statistik
12991 Mixe eingetragen
12699 Tracklisten
Newsletter
E-Mail
Anmelden
Abmelden
SPONSOREN