Mixkatalog
 Einloggen
Login
Passwort

The New Dance Projekt 13 Hits: 170  

The New Dance Projekt 13


Kurzbeschreibung:
DJ Rik präsentiert The New Dance Projekt Volume 13 Black Special.
 
Crew/DJ: DJ Rik Reihe: The New Dance Projekt
Stil: Black Erscheinungsjahr: 2019
Anzahl Tonträger: 1 Spielzeit: 74:34
Trackliste:
Cue-Informationen:

FILE "filename.mp3" MP3
  TRACK 01 AUDIO
    INDEX 01 00:00:00
  TRACK 02 AUDIO
    INDEX 01 01:08:70
  TRACK 03 AUDIO
    INDEX 01 03:08:72
  TRACK 04 AUDIO
    INDEX 01 04:47:71
  TRACK 05 AUDIO
    INDEX 01 06:44:48
  TRACK 06 AUDIO
    INDEX 01 08:14:26
  TRACK 07 AUDIO
    INDEX 01 09:01:54
  TRACK 08 AUDIO
    INDEX 01 09:37:64
  TRACK 09 AUDIO
    INDEX 01 10:53:42
  TRACK 10 AUDIO
    INDEX 01 12:23:42
  TRACK 11 AUDIO
    INDEX 01 14:12:54
  TRACK 12 AUDIO
    INDEX 01 15:31:24
  TRACK 13 AUDIO
    INDEX 01 16:47:16
  TRACK 14 AUDIO
    INDEX 01 18:14:60
  TRACK 15 AUDIO
    INDEX 01 19:53:26
  TRACK 16 AUDIO
    INDEX 01 22:15:32
  TRACK 17 AUDIO
    INDEX 01 23:52:52
  TRACK 18 AUDIO
    INDEX 01 25:11:15
  TRACK 19 AUDIO
    INDEX 01 25:24:54
  TRACK 20 AUDIO
    INDEX 01 26:17:59
  TRACK 21 AUDIO
    INDEX 01 28:20:38
  TRACK 22 AUDIO
    INDEX 01 30:23:08
  TRACK 23 AUDIO
    INDEX 01 30:41:59
  TRACK 24 AUDIO
    INDEX 01 32:01:14
  TRACK 25 AUDIO
    INDEX 01 34:25:49
  TRACK 26 AUDIO
    INDEX 01 35:28:72
  TRACK 27 AUDIO
    INDEX 01 36:31:39
  TRACK 28 AUDIO
    INDEX 01 37:37:20
  TRACK 29 AUDIO
    INDEX 01 38:34:30
  TRACK 30 AUDIO
    INDEX 01 38:50:37
  TRACK 31 AUDIO
    INDEX 01 40:11:28
  TRACK 32 AUDIO
    INDEX 01 42:53:52
  TRACK 33 AUDIO
    INDEX 01 44:32:16
  TRACK 34 AUDIO
    INDEX 01 46:32:63
  TRACK 35 AUDIO
    INDEX 01 47:43:07
  TRACK 36 AUDIO
    INDEX 01 49:07:16
  TRACK 37 AUDIO
    INDEX 01 49:26:29
  TRACK 38 AUDIO
    INDEX 01 50:06:27
  TRACK 39 AUDIO
    INDEX 01 51:10:32
  TRACK 40 AUDIO
    INDEX 01 51:32:08
  TRACK 41 AUDIO
    INDEX 01 53:20:17
  TRACK 42 AUDIO
    INDEX 01 54:18:37
  TRACK 43 AUDIO
    INDEX 01 55:32:12
  TRACK 44 AUDIO
    INDEX 01 56:55:25
  TRACK 45 AUDIO
    INDEX 01 58:30:28
  TRACK 46 AUDIO
    INDEX 01 59:33:58
  TRACK 47 AUDIO
    INDEX 01 60:46:60
  TRACK 48 AUDIO
    INDEX 01 62:06:64
  TRACK 49 AUDIO
    INDEX 01 62:25:29
  TRACK 50 AUDIO
    INDEX 01 63:31:39
  TRACK 51 AUDIO
    INDEX 01 65:01:56
  TRACK 52 AUDIO
    INDEX 01 66:28:13
  TRACK 53 AUDIO
    INDEX 01 68:05:31
  TRACK 54 AUDIO
    INDEX 01 69:20:19
  TRACK 55 AUDIO
    INDEX 01 70:23:03
  TRACK 56 AUDIO
    INDEX 01 71:27:38
  TRACK 57 AUDIO
    INDEX 01 73:32:52
Wertung: (2)  
Hinzugefügt: 13 September 2019
RSS Feed
RSS Feed
Sprache
Deutsch Englisch Französisch
Mixsuche
Suchbegriff
Genauer Wortlaut
Alle Worte (UND)
Ein Wort (ODER)
Statistik
12347 Mixe eingetragen
12061 Tracklisten
Newsletter
E-Mail
Anmelden
Abmelden
SPONSOREN