Mixkatalog
 Einloggen
Login
Passwort

Megamix Chart Hits 2019 Hits: 245  

Megamix Chart Hits 2019


Kurzbeschreibung:
Move-Ya präsentiert Megamix Chart Hits 2019, gemixt von DJ Flim Flam.
 
Crew/DJ: Move-Ya Reihe: Charts Megamix
Stil: Dance Erscheinungsjahr: 2019
Anzahl Tonträger: 1 Spielzeit: 78
Trackliste:
Cue-Informationen:

FILE "filename.mp3" MP3
  TRACK 01 AUDIO
    INDEX 01 00:00:00
  TRACK 02 AUDIO
    INDEX 01 01:02:26
  TRACK 03 AUDIO
    INDEX 01 02:32:26
  TRACK 04 AUDIO
    INDEX 01 03:17:25
  TRACK 05 AUDIO
    INDEX 01 04:47:25
  TRACK 06 AUDIO
    INDEX 01 06:02:24
  TRACK 07 AUDIO
    INDEX 01 07:47:26
  TRACK 08 AUDIO
    INDEX 01 09:47:25
  TRACK 09 AUDIO
    INDEX 01 11:17:08
  TRACK 10 AUDIO
    INDEX 01 12:01:57
  TRACK 11 AUDIO
    INDEX 01 13:45:71
  TRACK 12 AUDIO
    INDEX 01 16:14:58
  TRACK 13 AUDIO
    INDEX 01 18:13:64
  TRACK 14 AUDIO
    INDEX 01 20:05:06
  TRACK 15 AUDIO
    INDEX 01 21:11:41
  TRACK 16 AUDIO
    INDEX 01 22:54:69
  TRACK 17 AUDIO
    INDEX 01 25:22:47
  TRACK 18 AUDIO
    INDEX 01 26:51:17
  TRACK 19 AUDIO
    INDEX 01 27:50:23
  TRACK 20 AUDIO
    INDEX 01 29:18:19
  TRACK 21 AUDIO
    INDEX 01 30:31:40
  TRACK 22 AUDIO
    INDEX 01 32:43:33
  TRACK 23 AUDIO
    INDEX 01 35:09:00
  TRACK 24 AUDIO
    INDEX 01 36:36:20
  TRACK 25 AUDIO
    INDEX 01 37:34:34
  TRACK 26 AUDIO
    INDEX 01 38:32:15
  TRACK 27 AUDIO
    INDEX 01 39:44:29
  TRACK 28 AUDIO
    INDEX 01 40:42:10
  TRACK 29 AUDIO
    INDEX 01 43:06:35
  TRACK 30 AUDIO
    INDEX 01 45:15:33
  TRACK 31 AUDIO
    INDEX 01 46:55:48
  TRACK 32 AUDIO
    INDEX 01 47:52:40
  TRACK 33 AUDIO
    INDEX 01 49:17:65
  TRACK 34 AUDIO
    INDEX 01 51:40:06
  TRACK 35 AUDIO
    INDEX 01 52:36:73
  TRACK 36 AUDIO
    INDEX 01 54:30:56
  TRACK 37 AUDIO
    INDEX 01 55:41:64
  TRACK 38 AUDIO
    INDEX 01 58:17:59
  TRACK 39 AUDIO
    INDEX 01 60:10:54
  TRACK 40 AUDIO
    INDEX 01 61:07:15
  TRACK 41 AUDIO
    INDEX 01 62:17:20
  TRACK 42 AUDIO
    INDEX 01 64:37:30
  TRACK 43 AUDIO
    INDEX 01 65:46:73
  TRACK 44 AUDIO
    INDEX 01 66:42:47
  TRACK 45 AUDIO
    INDEX 01 67:52:15
  TRACK 46 AUDIO
    INDEX 01 70:24:69
  TRACK 47 AUDIO
    INDEX 01 71:47:61
  TRACK 48 AUDIO
    INDEX 01 73:38:25
  TRACK 49 AUDIO
    INDEX 01 76:10:05
  TRACK 50 AUDIO
    INDEX 01 76:51:15
  TRACK 51 AUDIO
    INDEX 01 78:13:36
Wertung: (1)  
Hinzugefügt: 10 August 2019
RSS Feed
RSS Feed
Sprache
Deutsch Englisch Französisch
Mixsuche
Suchbegriff
Genauer Wortlaut
Alle Worte (UND)
Ein Wort (ODER)
Statistik
12445 Mixe eingetragen
12172 Tracklisten
Newsletter
E-Mail
Anmelden
Abmelden
SPONSOREN