Mixkatalog
 Einloggen
Login
Passwort

Böhse Onkelz Aburrimiento Der Mix Hits: 340  

Böhse Onkelz Aburrimiento Der Mix


Kurzbeschreibung:
Böhse Onkelz präsentieren Aburrimiento Der Mix, gemixt von Onkel_Maik.
 
Crew/DJ: B Reihe: Böhse Onkelz
Stil: Deutsch Erscheinungsjahr: 2004
Anzahl Tonträger: 1 Spielzeit: 79:56
Trackliste:
Cue-Informationen:

FILE "filename.mp3" MP3
  TRACK 01 AUDIO
    INDEX 01 00:00:00
  TRACK 02 AUDIO
    INDEX 01 00:27:50
  TRACK 03 AUDIO
    INDEX 01 02:20:00
  TRACK 04 AUDIO
    INDEX 01 03:46:00
  TRACK 05 AUDIO
    INDEX 01 05:56:00
  TRACK 06 AUDIO
    INDEX 01 08:09:00
  TRACK 07 AUDIO
    INDEX 01 09:29:00
  TRACK 08 AUDIO
    INDEX 01 11:35:00
  TRACK 09 AUDIO
    INDEX 01 13:34:00
  TRACK 10 AUDIO
    INDEX 01 15:19:00
  TRACK 11 AUDIO
    INDEX 01 16:44:00
  TRACK 12 AUDIO
    INDEX 01 19:40:00
  TRACK 13 AUDIO
    INDEX 01 21:01:00
  TRACK 14 AUDIO
    INDEX 01 24:03:00
  TRACK 15 AUDIO
    INDEX 01 27:08:00
  TRACK 16 AUDIO
    INDEX 01 29:54:00
  TRACK 17 AUDIO
    INDEX 01 31:12:00
  TRACK 18 AUDIO
    INDEX 01 33:16:00
  TRACK 19 AUDIO
    INDEX 01 34:47:00
  TRACK 20 AUDIO
    INDEX 01 36:29:00
  TRACK 21 AUDIO
    INDEX 01 38:35:00
  TRACK 22 AUDIO
    INDEX 01 40:13:00
  TRACK 23 AUDIO
    INDEX 01 41:55:00
  TRACK 24 AUDIO
    INDEX 01 43:19:00
  TRACK 25 AUDIO
    INDEX 01 45:23:00
  TRACK 26 AUDIO
    INDEX 01 46:43:00
  TRACK 27 AUDIO
    INDEX 01 48:04:00
  TRACK 28 AUDIO
    INDEX 01 49:28:00
  TRACK 29 AUDIO
    INDEX 01 50:49:00
  TRACK 30 AUDIO
    INDEX 01 52:43:00
  TRACK 31 AUDIO
    INDEX 01 54:37:00
  TRACK 32 AUDIO
    INDEX 01 56:13:00
  TRACK 33 AUDIO
    INDEX 01 57:51:00
  TRACK 34 AUDIO
    INDEX 01 59:22:50
  TRACK 35 AUDIO
    INDEX 01 62:46:00
  TRACK 36 AUDIO
    INDEX 01 64:52:00
  TRACK 37 AUDIO
    INDEX 01 68:34:00
  TRACK 38 AUDIO
    INDEX 01 70:30:00
  TRACK 39 AUDIO
    INDEX 01 71:57:00
  TRACK 40 AUDIO
    INDEX 01 74:34:00
Wertung: (6)  
Hinzugefügt: 31 May 2011
RSS Feed
RSS Feed
Sprache
Deutsch Englisch Französisch
Mixsuche
Suchbegriff
Genauer Wortlaut
Alle Worte (UND)
Ein Wort (ODER)
Statistik
36701 Mixe eingetragen
34763 Tracklisten
Newsletter
E-Mail
Anmelden
Abmelden
SPONSOREN