Mixkatalog
 Einloggen
Login
Passwort

Club Life From Europe 18 Hits: 95  

Club Life From Europe 18


Kurzbeschreibung:
Tom Miles (DJ Thomas) präsentiert Club Life From Europe Volume 18.
 
Crew/DJ: DJ Thomas Reihe: Club Life
Stil: Dance Erscheinungsjahr: 2019
Anzahl Tonträger: 1 Spielzeit: 79:48
Trackliste:
Tracklist nicht öffentlich...
Cue-Informationen:

FILE "filename.mp3" MP3
  TRACK 01 AUDIO
    INDEX 01 00:00:00
  TRACK 02 AUDIO
    INDEX 01 00:44:29
  TRACK 03 AUDIO
    INDEX 01 03:57:27
  TRACK 04 AUDIO
    INDEX 01 06:51:16
  TRACK 05 AUDIO
    INDEX 01 09:24:71
  TRACK 06 AUDIO
    INDEX 01 12:08:16
  TRACK 07 AUDIO
    INDEX 01 15:01:38
  TRACK 08 AUDIO
    INDEX 01 17:24:68
  TRACK 09 AUDIO
    INDEX 01 20:46:38
  TRACK 10 AUDIO
    INDEX 01 23:58:33
  TRACK 11 AUDIO
    INDEX 01 26:13:11
  TRACK 12 AUDIO
    INDEX 01 29:06:66
  TRACK 13 AUDIO
    INDEX 01 32:16:36
  TRACK 14 AUDIO
    INDEX 01 35:04:36
  TRACK 15 AUDIO
    INDEX 01 38:25:69
  TRACK 16 AUDIO
    INDEX 01 41:09:07
  TRACK 17 AUDIO
    INDEX 01 44:06:44
  TRACK 18 AUDIO
    INDEX 01 47:26:45
  TRACK 19 AUDIO
    INDEX 01 49:30:01
  TRACK 20 AUDIO
    INDEX 01 52:23:54
  TRACK 21 AUDIO
    INDEX 01 54:59:11
  TRACK 22 AUDIO
    INDEX 01 57:06:09
  TRACK 23 AUDIO
    INDEX 01 59:34:35
  TRACK 24 AUDIO
    INDEX 01 62:45:46
  TRACK 25 AUDIO
    INDEX 01 65:40:57
  TRACK 26 AUDIO
    INDEX 01 69:00:23
  TRACK 27 AUDIO
    INDEX 01 72:58:09
  TRACK 28 AUDIO
    INDEX 01 75:35:47
Wertung: (1)  
Hinzugefügt: 22 May 2019
RSS Feed
RSS Feed
Sprache
Deutsch Englisch Französisch
Mixsuche
Suchbegriff
Genauer Wortlaut
Alle Worte (UND)
Ein Wort (ODER)
Statistik
12793 Mixe eingetragen
12535 Tracklisten
Newsletter
E-Mail
Anmelden
Abmelden
SPONSOREN