Mixkatalog
 Einloggen
Login
Passwort

Party Compilation 06 Hits: 147  

Party Compilation 06


Kurzbeschreibung:
Studio 33 präsentiert Party Compilation 6, The Millennium Party.
 
Crew/DJ: Studio 33 Reihe: Party Compilation
Stil: Party Erscheinungsjahr: 1999
Anzahl Tonträger: 1 Spielzeit: 73:18
Trackliste:
Cue-Informationen:

FILE "filename.mp3" MP3
  TRACK 01 AUDIO
    INDEX 01 00:00:00
  TRACK 02 AUDIO
    INDEX 01 02:51:54
  TRACK 03 AUDIO
    INDEX 01 07:05:55
  TRACK 04 AUDIO
    INDEX 01 15:32:20
  TRACK 05 AUDIO
    INDEX 01 18:26:32
  TRACK 06 AUDIO
    INDEX 01 23:27:18
  TRACK 07 AUDIO
    INDEX 01 28:40:08
  TRACK 08 AUDIO
    INDEX 01 34:41:23
  TRACK 09 AUDIO
    INDEX 01 39:22:46
  TRACK 10 AUDIO
    INDEX 01 47:31:17
  TRACK 11 AUDIO
    INDEX 01 52:29:61
  TRACK 12 AUDIO
    INDEX 01 55:02:62
  TRACK 13 AUDIO
    INDEX 01 58:24:28
  TRACK 14 AUDIO
    INDEX 01 62:31:01
  TRACK 15 AUDIO
    INDEX 01 65:55:11
  TRACK 16 AUDIO
    INDEX 01 69:33:58
Wertung: (86)  
Hinzugefügt: 12 September 2009

 Kommentare
Von:
Bunitz
Am:
31 May 2011
Einer der besten, wenn nicht sogar der beste Partymix!
Von:
Silversound
Am:
1 February 2012
Der Mix gehört in die Kategorie: "Bester Mix". Hier passt alles! Besser geht fast nicht mehr.
RSS Feed
RSS Feed
Sprache
Deutsch Englisch Französisch
Mixsuche
Suchbegriff
Genauer Wortlaut
Alle Worte (UND)
Ein Wort (ODER)
Statistik
36711 Mixe eingetragen
34773 Tracklisten
Newsletter
E-Mail
Anmelden
Abmelden
SPONSOREN