Mixkatalog
 Einloggen
Login
Passwort

Party Compilation 04 Hits: 250  

Party Compilation 04


Kurzbeschreibung:
Studio 33 präsentiert Party Compilation 4, The Mega Snow-Party-Mix.
 
Crew/DJ: Studio 33 Reihe: Party Compilation
Stil: Party Erscheinungsjahr: 1998
Anzahl Tonträger: 1 Spielzeit: 69:38
Trackliste:
Cue-Informationen:

FILE "filename.mp3" MP3
  TRACK 01 AUDIO
    INDEX 00 00:00:00
  TRACK 02 AUDIO
    INDEX 01 06:19:02
  TRACK 03 AUDIO
    INDEX 01 10:49:20
  TRACK 04 AUDIO
    INDEX 01 16:01:66
  TRACK 05 AUDIO
    INDEX 01 21:03:63
  TRACK 06 AUDIO
    INDEX 01 26:22:57
  TRACK 07 AUDIO
    INDEX 01 33:42:68
  TRACK 08 AUDIO
    INDEX 01 42:35:10
  TRACK 09 AUDIO
    INDEX 01 48:53:41
  TRACK 10 AUDIO
    INDEX 01 55:59:02
  TRACK 11 AUDIO
    INDEX 01 64:03:26
Wertung: (3)  
Hinzugefügt: 12 September 2009
RSS Feed
RSS Feed
Sprache
Deutsch Englisch Französisch
Mixsuche
Suchbegriff
Genauer Wortlaut
Alle Worte (UND)
Ein Wort (ODER)
Statistik
36711 Mixe eingetragen
34773 Tracklisten
Newsletter
E-Mail
Anmelden
Abmelden
SPONSOREN