Mixkatalog
 Einloggen
Login
Passwort

The 032nd Story Hits: 39  

The 032nd Story


Kurzbeschreibung:
The Absolute Party Hit-Mix, Studio 33 The 32nd Story.
 
Crew/DJ: Studio 33 Reihe: Story
Stil: Dance Erscheinungsjahr: 2000
CDs: 1 Spielzeit: 74:16
Trackliste:
Cue-Informationen:

FILE "filename.mp3" MP3
  TRACK 01 AUDIO
    INDEX 01 00:00:00
  TRACK 02 AUDIO
    INDEX 01 01:37:01
  TRACK 03 AUDIO
    INDEX 01 03:01:04
  TRACK 04 AUDIO
    INDEX 01 03:55:48
  TRACK 05 AUDIO
    INDEX 01 05:45:58
  TRACK 06 AUDIO
    INDEX 01 06:57:74
  TRACK 07 AUDIO
    INDEX 01 07:53:53
  TRACK 08 AUDIO
    INDEX 01 09:15:48
  TRACK 09 AUDIO
    INDEX 01 09:57:19
  TRACK 10 AUDIO
    INDEX 01 10:55:55
  TRACK 11 AUDIO
    INDEX 01 11:50:61
  TRACK 12 AUDIO
    INDEX 01 12:46:04
  TRACK 13 AUDIO
    INDEX 01 13:27:01
  TRACK 14 AUDIO
    INDEX 01 14:22:12
  TRACK 15 AUDIO
    INDEX 01 15:24:01
  TRACK 16 AUDIO
    INDEX 01 16:13:04
  TRACK 17 AUDIO
    INDEX 01 17:32:46
  TRACK 18 AUDIO
    INDEX 01 19:00:37
  TRACK 19 AUDIO
    INDEX 01 19:42:52
  TRACK 20 AUDIO
    INDEX 01 20:57:55
  TRACK 21 AUDIO
    INDEX 01 21:40:28
  TRACK 22 AUDIO
    INDEX 01 23:21:57
  TRACK 23 AUDIO
    INDEX 01 24:03:73
  TRACK 24 AUDIO
    INDEX 01 25:20:61
  TRACK 25 AUDIO
    INDEX 01 26:17:07
  TRACK 26 AUDIO
    INDEX 01 27:06:16
  TRACK 27 AUDIO
    INDEX 01 27:55:05
  TRACK 28 AUDIO
    INDEX 01 28:40:42
  TRACK 29 AUDIO
    INDEX 01 29:36:44
  TRACK 30 AUDIO
    INDEX 01 31:00:38
  TRACK 31 AUDIO
    INDEX 01 32:24:16
  TRACK 32 AUDIO
    INDEX 01 33:40:63
  TRACK 33 AUDIO
    INDEX 01 34:43:42
  TRACK 34 AUDIO
    INDEX 01 35:45:36
  TRACK 35 AUDIO
    INDEX 01 37:34:09
  TRACK 36 AUDIO
    INDEX 01 38:50:29
  TRACK 37 AUDIO
    INDEX 01 39:28:70
  TRACK 38 AUDIO
    INDEX 01 40:44:72
  TRACK 39 AUDIO
    INDEX 01 41:30:29
  TRACK 40 AUDIO
    INDEX 01 42:42:67
  TRACK 41 AUDIO
    INDEX 01 44:28:11
  TRACK 42 AUDIO
    INDEX 01 45:13:14
  TRACK 43 AUDIO
    INDEX 01 45:58:12
  TRACK 44 AUDIO
    INDEX 01 47:01:44
  TRACK 45 AUDIO
    INDEX 01 48:14:48
  TRACK 46 AUDIO
    INDEX 01 49:43:74
  TRACK 47 AUDIO
    INDEX 01 49:58:63
  TRACK 48 AUDIO
    INDEX 01 51:07:37
  TRACK 49 AUDIO
    INDEX 01 51:59:25
  TRACK 50 AUDIO
    INDEX 01 52:51:07
  TRACK 51 AUDIO
    INDEX 01 54:04:49
  TRACK 52 AUDIO
    INDEX 01 56:17:64
  TRACK 53 AUDIO
    INDEX 01 57:58:25
  TRACK 54 AUDIO
    INDEX 01 58:44:59
  TRACK 55 AUDIO
    INDEX 01 59:43:06
  TRACK 56 AUDIO
    INDEX 01 60:35:16
  TRACK 57 AUDIO
    INDEX 01 61:35:09
  TRACK 58 AUDIO
    INDEX 01 63:05:36
  TRACK 59 AUDIO
    INDEX 01 64:10:18
  TRACK 60 AUDIO
    INDEX 01 64:52:41
  TRACK 61 AUDIO
    INDEX 01 66:14:66
  TRACK 62 AUDIO
    INDEX 01 68:21:46
  TRACK 63 AUDIO
    INDEX 01 69:21:12
  TRACK 64 AUDIO
    INDEX 01 70:47:41
  TRACK 65 AUDIO
    INDEX 01 71:25:35
  TRACK 66 AUDIO
    INDEX 01 73:07:05
Wertung: (7)  
Hinzugefügt: 2 February 2009
RSS Feed
RSS Feed
Sprache
Deutsch Englisch Französisch
Mixsuche
Suchbegriff
Genauer Wortlaut
Alle Worte (UND)
Ein Wort (ODER)
Statistik
34688 Mixe eingetragen
32809 Tracklisten
Newsletter
E-Mail
Anmelden
Abmelden
SPONSOREN