Mixkatalog
 Einloggen
Login
Passwort

Deep Dance 155½ Hits: 1  

Deep Dance 155½


Kurzbeschreibung:
Deep Dance 155½. Es handelt sich dabei um die gekürzte Version des DJ Digistd Dance Yearmix 2017 und 2 weitere Mixe von Sandra und Alphaville.
 
Crew/DJ: Deep Records Reihe: DD Serie Erstauflage
Stil: Dance Erscheinungsjahr: 2018
Anzahl Tonträger: 1 Spielzeit: 79:56
Trackliste:
    Deep Yearmix 2017:
    Spieldauer 52'58
  1. Intro
  2. Rag'N'Bone Man - Skin
  3. Welshly Arms - Legendary
  4. Max Giesinger - Roulette
  5. Imagine Dragons - Thunder
  6. G-Eazy - Good Life
  7. Camila Cabello - Crying In The Club
  8. Ed Sheeran - Shape Of You
  9. Rhodes vs. Felix Jaehn - Your Soul
  10. Sam Smith - Too Good At Goodbyes
  11. Lany - ILYSB
  12. Sultan + Shepard feat. Nadia Ali + IRO - Almost Home
  13. Stargate feat. P!nk & Sia - Waterfall
  14. Lucenzo - Turn Me On
  15. Calvin Harris feat. Pharrell Williams, Katy Perry & Big Sean - Feels
  16. Luis Fonsi feat. Daddy Yankee - Despacito
  17. Kaleo - Way Down We Go
  18. Silbermond - B96
  19. Madeline Juno - Stupid Girl
  20. Anton Powers & Pixie Lott - Baby
  21. Ariana Grande feat. Future - Everyday
  22. Adina Howard - Freak Like Me
  23. Camila Cabello feat. Young Thug - Havana
  24. Kangeroo - Jolene
  25. Carly Rae Jepsen - Cut To The Feeling
  26. Martin Solveig feat. ALMA - All Stars
  27. Kelly Family - Nanana
  28. Imagine Dragons - Whatever It Takes
  29. J Balvin & Willy William feat. Beyoncé - Mi Gente
  30. Mark Forster - Sowieso
  31. Ryan Ryback - One Last Time
  32. Katy Perry - Chained To The Rhythm
  33. Taylor Swift - Look What You Made Me Do
  34. Burak Yeter feat. Danelle Sandoval - Tuesday
  35. Sean Paul feat. Dua Lipa - No Lie
  36. Katy Perry feat. Migos - Bon Appetit
  37. Robin Schulz feat. James Blunt - OK
  38. P!nk - What About Us
  39. ZAYN feat. Sia - Dusk Till Dawn
  40. Shermanology - Movin’ Too Fast
  41. Charlie Puth - Attention
  42. Clean Bandit feat. Sean Paul & Anne-Marie - Rockabye
  43. Kungs feat. Jamie N Commons - Don’t You Know
  44. Wincent Weiss - Frische Luft
  45. Wincent Weiss - Feuerwerk
  46. Topic feat. Nico Santos - Home
  47. Rita Ora - Your Song
  48. Ed Sheeran - Galway Gal
  49. Felix Jaehn & Hight feat. Alex Aiono - Hot2Touch
  50. Kygo - It Ain’t Me
  51. Avicii feat. Rita Ora - Lonely Together
  52. Kygo feat. Justin Jesso - Stargazing
  53. Jonas Blue feat. William Singe - Mama
  54. Shawn Mendes - There’s Nothing Holdin’ Me Back
  55. Jax Jones feat. RAYE - You Don’t Know Me
  56. Adel Tawil - Ist Da Jemand
  57. Bakermat - Baby
  58. Alle Farben & Janieck - Little Hollywood
  59. Maroon 5 feat. Future - Cold
  60. The Chainsmokers & Coldplay - Something Just Like This
  61. Dual Lipa - New Rules
  62. The Weeknd - Secrets
  63. Akadia - Clouds above
  64. Ivy Layne - One You Love
  65. Julia Michaels - Issues
  66. Ivy Layne - One You Love
  67. John Gibbons - P.Y.T.
  68. Olga Lounova - Dark Day
    Deep meets Alphaville: Alphaville Megamix by EFX
    Spieldauer 14'33
  69. Alphaville - Big In Japan
  70. Alphaville - The Elevator
  71. Alphaville - Sounds Like A Melody
  72. Alphaville - A Victory Of Love
  73. Alphaville - Jet Set
  74. Alphaville - Forever Young
  75. Alphaville - Dance With Me
  76. Alphaville - Summer In Berlin
  77. Alphaville - Red Rose
    Deep meets Sandra: Sandra Megamix by DJ Mischen
    Spieldauer 12'50
  78. Sandra - We'll Be Together
  79. Sandra - Heaven Can Wait
  80. Sandra - Hi! Hi! Hi!
  81. Sandra - Stop For A Minute
  82. Sandra - Secret Land
  83. Sandra - Around My Heart
  84. Sandra - Innocent Love
  85. Sandra - Everlasting Love
  86. Sandra - (Life May Be) A Big Insanity
  87. Sandra - In The Heat Of The Night
Cue-Informationen:

FILE "filename.mp3" MP3
  TRACK 01 AUDIO
    INDEX 01 00:00:00
  TRACK 02 AUDIO
    INDEX 01 52:59:42
  TRACK 03 AUDIO
    INDEX 01 67:33:38
Wertung: (1)   Hinzugefügt: 8 March 2018
RSS Feed
RSS Feed
Sprache
Deutsch Englisch Französisch
Mixsuche
Suchbegriff
Genauer Wortlaut
Alle Worte (UND)
Ein Wort (ODER)
Statistik
14805 Mixe eingetragen
14492 Tracklisten
Newsletter
E-Mail
Anmelden
Abmelden
SPONSOREN