Mixkatalog
 Einloggen
Login
Passwort

Deep Dance 155 Hits: 128  

Deep Dance 155


Kurzbeschreibung:
Deep präsentiert Deep Dance 155. Es handelt sich dabei um den Deep Dance 153½ welcher als New DJ Deep Team im Jewel Case erschienen ist. Hier die Version von Ruhrpott Records in eckiger Blechdose mit Sichtfenster und ohne Hologramm. Schriftfeld nicht lesbar. Eine Weitere Ausgabe findet Ihr hier.
 
Crew/DJ: Deep Reihe: DD Serie Fake
Stil: Dance Erscheinungsjahr: 2017
Anzahl Tonträger: 1 Spielzeit: 66:26
Trackliste:
Cue-Informationen:

FILE "Filename.wav" WAVE
  TRACK 01 AUDIO
    INDEX 01 00:00:00
  TRACK 02 AUDIO
    INDEX 01 00:25:26
  TRACK 03 AUDIO
    INDEX 01 27:18:43
  TRACK 04 AUDIO
    INDEX 01 42:24:14
Wertung: ()  
Hinzugefügt: 8 March 2018
Bewerte als Erster diesen Mix:
RSS Feed
RSS Feed
Sprache
Deutsch Englisch Französisch
Mixsuche
Suchbegriff
Genauer Wortlaut
Alle Worte (UND)
Ein Wort (ODER)
Statistik
36711 Mixe eingetragen
34773 Tracklisten
Newsletter
E-Mail
Anmelden
Abmelden
SPONSOREN