Mixkatalog
 Einloggen
Login
Passwort

Fox & Dance 09th Edition Hits: 2  

Fox & Dance 09th Edition


Kurzbeschreibung:
ASS Records präsentiert den Studio 33 Fox & Dance 9th Edition.
 
Crew/DJ: Studio 33 Reihe: Fox & Dance
Stil: Fox Erscheinungsjahr: 2005
Anzahl Tonträger: 1 Spielzeit: 74:11
Trackliste:
  1. Intro
  2. Wienna - In The Name Of Love
  3. Dante - Flying Away
  4. Tommy Fischer - Du Bist Alles
  5. Donky Doris - Ich Will 'Nen Cowboy Als Mann 2005
  6. Bandolero - Paris Latino
  7. Olaf Henning - Schick Mir Die Rechnung
  8. Orlando - Easy Lover
  9. Jörg Bausch - Ich Habe Lust Am Leben
  10. Anja Regitz - Auch Wenn Du Gehst
  11. Jigsaw - Sky High
  12. Radiorama - More Time
  13. Nico Gemba - Ich Glaub Du Bist 'Ne Sünde Wert
  14. Schnappi - Das Kleine Krokodil (Italo Mix)
  15. David Lyme - You're My Desire
  16. Susan Schubert - Wie Ein Stein In Meinem Schuh
  17. Bernhardt Brink - Warum Denn Nicht
  18. Alexander Sebastian - Es Tut Mir Leid
  19. Ken Laszlo - Video Killed The Radio Star
  20. Thorsten Sander - Goodbye My Love
  21. Edwina De Potter - Ich Verlieb Mich Lieber Nicht
  22. Michael Wendler - Totales Finale
  23. Dennis Harder - Einmal Himmel und Zurück
  24. Mark Ashley - Ill Be There For You Tonight
  25. Michael Stein - Viel Zu Jung
  26. Jenny Kee - Somebodys Loving
  27. Ralle Schneider - Doch Dann Kamst Du
  28. Bad Boys Blue - Hungry For Love
  29. Chip Chip - Never Say Goodbye
  30. Hansi Süssenbach - Tränen Lügen Nicht
  31. Denise - 1001 Nacht
  32. Michael Larsen - Meinetwegen
  33. Mike Bauhaus - Aloahe
  34. Patty Ryan - Stay With Me Tonight
  35. Ronny Krappmann - Heute Nacht (Touch In The Night)
  36. Grant Miller - (Find My) Tracks In The Snow
  37. Scotch - Loving Is Easy
  38. Harpo - Horoscope
    Bonustrack:
  39. Newton - Sky High
  40. Schnappi - Das Kleine Krokodil
Cue-Informationen:

FILE "filename.mp3" MP3
  TRACK 01 AUDIO
    INDEX 01 00:00:00
  TRACK 02 AUDIO
    INDEX 01 00:13:48
  TRACK 03 AUDIO
    INDEX 01 01:53:04
  TRACK 04 AUDIO
    INDEX 01 03:16:39
  TRACK 05 AUDIO
    INDEX 01 04:46:49
  TRACK 06 AUDIO
    INDEX 01 06:22:46
  TRACK 07 AUDIO
    INDEX 01 08:17:49
  TRACK 08 AUDIO
    INDEX 01 09:57:49
  TRACK 09 AUDIO
    INDEX 01 11:08:22
  TRACK 10 AUDIO
    INDEX 01 12:05:22
  TRACK 11 AUDIO
    INDEX 01 13:38:31
  TRACK 12 AUDIO
    INDEX 01 14:48:28
  TRACK 13 AUDIO
    INDEX 01 17:15:49
  TRACK 14 AUDIO
    INDEX 01 18:22:49
  TRACK 15 AUDIO
    INDEX 01 20:12:07
  TRACK 16 AUDIO
    INDEX 01 21:24:11
  TRACK 17 AUDIO
    INDEX 01 22:50:37
  TRACK 18 AUDIO
    INDEX 01 24:36:49
  TRACK 19 AUDIO
    INDEX 01 26:48:15
  TRACK 20 AUDIO
    INDEX 01 27:50:38
  TRACK 21 AUDIO
    INDEX 01 29:48:48
  TRACK 22 AUDIO
    INDEX 01 30:49:49
  TRACK 23 AUDIO
    INDEX 01 32:47:03
  TRACK 24 AUDIO
    INDEX 01 34:33:15
  TRACK 25 AUDIO
    INDEX 01 36:05:49
  TRACK 26 AUDIO
    INDEX 01 37:22:10
  TRACK 27 AUDIO
    INDEX 01 39:49:32
  TRACK 28 AUDIO
    INDEX 01 41:26:22
  TRACK 29 AUDIO
    INDEX 01 44:07:49
  TRACK 30 AUDIO
    INDEX 01 46:44:31
  TRACK 31 AUDIO
    INDEX 01 48:36:19
  TRACK 32 AUDIO
    INDEX 01 50:41:05
  TRACK 33 AUDIO
    INDEX 01 52:34:26
  TRACK 34 AUDIO
    INDEX 01 54:52:27
  TRACK 35 AUDIO
    INDEX 01 57:25:49
  TRACK 36 AUDIO
    INDEX 01 60:17:31
  TRACK 37 AUDIO
    INDEX 01 62:13:49
  TRACK 38 AUDIO
    INDEX 01 64:38:00
  TRACK 39 AUDIO
    INDEX 01 65:16:38
  TRACK 40 AUDIO
    INDEX 01 72:02:08
Wertung: ()   Hinzugefügt: 5 April 2011
Bewerte als Erster diesen Mix:
RSS Feed
RSS Feed
Sprache
Deutsch Englisch Französisch
Mixsuche
Suchbegriff
Genauer Wortlaut
Alle Worte (UND)
Ein Wort (ODER)
Statistik
14805 Mixe eingetragen
14492 Tracklisten
Newsletter
E-Mail
Anmelden
Abmelden
SPONSOREN