Mixkatalog
 Einloggen
Login
Passwort

Deep Dance 146½ Hits: 56  

Deep Dance 146½


Kurzbeschreibung:
Deep präsentiert Deep Dance Volume 146½ Real Edition. Erschien ausschließlich nur im Jewel Case, hier in einem anderen Design. Bei dieser Version handelt es sich um Deep Dance 145.
 
Crew/DJ: Deep Reihe: DD Serie Fake
Stil: Dance Erscheinungsjahr: 2013
Anzahl Tonträger: 1 Spielzeit: 79:57
Trackliste:
Cue-Informationen:

FILE "filename.mp3" MP3
  TRACK 01 AUDIO
    INDEX 01 00:00:00
  TRACK 02 AUDIO
    INDEX 01 00:18:70
  TRACK 03 AUDIO
    INDEX 01 30:14:13
  TRACK 04 AUDIO
    INDEX 01 54:23:32
Wertung: (1)  
Hinzugefügt: 31 January 2018
RSS Feed
RSS Feed
Sprache
Deutsch Englisch Französisch
Mixsuche
Suchbegriff
Genauer Wortlaut
Alle Worte (UND)
Ein Wort (ODER)
Statistik
13164 Mixe eingetragen
12872 Tracklisten
Newsletter
E-Mail
Anmelden
Abmelden
SPONSOREN