Mixkatalog
 Einloggen
Login
Passwort

Fox & Dance 05th Edition Hits: 2  

Fox & Dance 05th Edition


Kurzbeschreibung:
ASS Records präsentiert den Studio 33 Fox & Dance 5th Edition.
 
Crew/DJ: Studio 33 Reihe: Fox & Dance
Stil: Fox Erscheinungsjahr: 2003
Anzahl Tonträger: 1 Spielzeit: 76:35
Trackliste:
  1. Fun Fun - Happy Station
  2. Baby's Gang - Happy Song
  3. Ryan Paris - Dolce Vita
  4. Fancy - Lady Of Ice
  5. Silent Circle - Touch In The Night
  6. Ken Laszlo - Hey Hey Guy
  7. Righeira - Vamos A La Playa
  8. Righeira - No Tengo Dinero
  9. Digital Toy - Your Love Tonight
  10. Savage - Don't Cry Tonight
  11. RAF - Self Control
  12. Gazebo - I Like Chopin
  13. Radiorama - Chance To Desire
  14. Scotch - Disco Band
  15. P. Lion - Happy Children
  16. Miko Mission - How Old Are You?
  17. Valerie Dore - Get Closer
  18. DJ's Project - Birthday Girl
  19. Spagna - Call Me
  20. Doctor's Cat - Feel The Drive
  21. Steve Allen - Letter From My Heart
  22. Kano - Another Life
  23. Shannon - Let The Music Play
  24. Koto - Visitors
  25. Fancy - Slice Me Nice
  26. Ivan - Fotonovela
  27. My Mine - Hypnotic Tango
  28. DJ's Project - Vision Of Love
    Bonustrack:
  29. Cutting Crew - Died In Your Arms
  30. Dead Or Alive - You Spin Me Round
  31. Den Harrow - Future Brain
  32. Kylie Minogue - Hand On Your Heart
Cue-Informationen:

FILE "filename.mp3" MP3
  TRACK 01 AUDIO
    INDEX 00 00:00:00
  TRACK 02 AUDIO
    INDEX 01 02:33:17
  TRACK 03 AUDIO
    INDEX 01 04:49:16
  TRACK 04 AUDIO
    INDEX 01 07:02:40
  TRACK 05 AUDIO
    INDEX 01 09:05:13
  TRACK 06 AUDIO
    INDEX 01 11:09:59
  TRACK 07 AUDIO
    INDEX 01 13:43:36
  TRACK 08 AUDIO
    INDEX 01 15:31:02
  TRACK 09 AUDIO
    INDEX 01 17:10:08
  TRACK 10 AUDIO
    INDEX 01 18:48:67
  TRACK 11 AUDIO
    INDEX 01 20:53:10
  TRACK 12 AUDIO
    INDEX 01 23:23:11
  TRACK 13 AUDIO
    INDEX 01 25:08:14
  TRACK 14 AUDIO
    INDEX 01 28:11:34
  TRACK 15 AUDIO
    INDEX 01 30:19:65
  TRACK 16 AUDIO
    INDEX 01 32:01:47
  TRACK 17 AUDIO
    INDEX 01 34:00:27
  TRACK 18 AUDIO
    INDEX 01 35:59:16
  TRACK 19 AUDIO
    INDEX 01 38:23:48
  TRACK 20 AUDIO
    INDEX 01 40:05:45
  TRACK 21 AUDIO
    INDEX 01 41:47:31
  TRACK 22 AUDIO
    INDEX 01 43:55:36
  TRACK 23 AUDIO
    INDEX 01 46:56:46
  TRACK 24 AUDIO
    INDEX 01 49:07:42
  TRACK 25 AUDIO
    INDEX 01 51:00:42
  TRACK 26 AUDIO
    INDEX 01 53:23:67
  TRACK 27 AUDIO
    INDEX 01 55:29:69
  TRACK 28 AUDIO
    INDEX 01 57:37:71
  TRACK 29 AUDIO
    INDEX 01 59:31:22
  TRACK 30 AUDIO
    INDEX 01 64:06:00
  TRACK 31 AUDIO
    INDEX 01 67:23:21
  TRACK 32 AUDIO
    INDEX 01 72:50:74
Wertung: ()   Hinzugefügt: 5 April 2011
Bewerte als Erster diesen Mix:
RSS Feed
RSS Feed
Sprache
Deutsch Englisch Französisch
Mixsuche
Suchbegriff
Genauer Wortlaut
Alle Worte (UND)
Ein Wort (ODER)
Statistik
14805 Mixe eingetragen
14492 Tracklisten
Newsletter
E-Mail
Anmelden
Abmelden
SPONSOREN