Mixkatalog
 Einloggen
Login
Passwort

Eurodance Party 6 Hits: 1  

Eurodance Party 6


Kurzbeschreibung:
Studio 33 präsentiert Eurodance Party Volume 6, gemixt von DJ Nippy (DJ 0.).
 
Crew/DJ: Studio 33 Reihe: Euro Dance Party
Stil: Dance Erscheinungsjahr: 2002
Anzahl Tonträger: 1 Spielzeit: 74:49
Trackliste:
  1. Intro
  2. Matrix - Romeo & Julia
  3. Paps 'N' Skar - Love Is Love
  4. Zynergy - This 'N' That
  5. Da Buzz - Alive
  6. IDS - Mine Forever
  7. DJ Hanz feat. Jill - Wake Up & See
  8. Ceres - Dancing With An Angel
  9. Consilio - Take My Heart
  10. White Label - Like You Do
  11. F-99 - You
  12. J. Lee - Tell Me Why We Can't Fall In Love
  13. Karaja - Love Me
  14. Kelly Llorenna - Tell It To My Heart
  15. Nausica - Who Wants To Live Forever
  16. Asya - Nothing Compares 2 U
  17. Magdaleine - I'm Alive
  18. Bandido - Vamos Amigo
  19. Cooper - I Want You Back
  20. Pink Panther - Show Me
  21. DJ Lhasa - Guilia
  22. Sabrina Paris - You
  23. Ken Laszlo - Inside My Music
  24. Wave Sound - Everybody
  25. Rimini Project - I Remember You Like Yesterday
  26. S.H.E. - Underneath Your Clothes
  27. Déjà Vu feat. Tasmin - When U Say Nothing At All
  28. Rochelle - Oops! I Did It Again
  29. Hotel Saint George - Lost In You
  30. Voice & Noise - Let's Go Wild
  31. Overclocker - All Night Long
  32. Disco Robot - Disco Robot
  33. DJ Ross - Emotion
  34. Gabry Ponte - Geordie (English Promo Mix)
  35. Variant K. - Jal
  36. MASH - One Day
  37. M.O.X. feat. Son - I'm Your DJ (I'll Be Alone)
  38. Lucas Prata - Let's Get It On
Cue-Informationen:

FILE "filename.mp3" MP3 
  TRACK 01 AUDIO 
    INDEX 01 00:00:00 
  TRACK 02 AUDIO 
    INDEX 01 01:01:55 
  TRACK 03 AUDIO 
    INDEX 01 01:43:35 
  TRACK 04 AUDIO 
    INDEX 01 04:19:63 
  TRACK 05 AUDIO 
    INDEX 01 06:14:47 
  TRACK 06 AUDIO 
    INDEX 01 07:56:28 
  TRACK 07 AUDIO 
    INDEX 01 10:15:34 
  TRACK 08 AUDIO 
    INDEX 01 12:06:60 
  TRACK 09 AUDIO 
    INDEX 01 13:59:67 
  TRACK 10 AUDIO 
    INDEX 01 15:46:00 
  TRACK 11 AUDIO 
    INDEX 01 17:49:36 
  TRACK 12 AUDIO 
    INDEX 01 19:51:18 
  TRACK 13 AUDIO 
    INDEX 01 22:24:21 
  TRACK 14 AUDIO 
    INDEX 01 24:38:14 
  TRACK 15 AUDIO 
    INDEX 01 26:45:17 
  TRACK 16 AUDIO 
    INDEX 01 28:53:69 
  TRACK 17 AUDIO 
    INDEX 01 31:26:70 
  TRACK 18 AUDIO 
    INDEX 01 33:53:03 
  TRACK 19 AUDIO 
    INDEX 01 36:27:59 
  TRACK 20 AUDIO 
    INDEX 01 38:12:26 
  TRACK 21 AUDIO 
    INDEX 01 40:17:43 
  TRACK 22 AUDIO 
    INDEX 01 42:08:66 
  TRACK 23 AUDIO 
    INDEX 01 44:14:08 
  TRACK 24 AUDIO 
    INDEX 01 46:26:21 
  TRACK 25 AUDIO 
    INDEX 01 48:17:53 
  TRACK 26 AUDIO 
    INDEX 01 50:40:24 
  TRACK 27 AUDIO 
    INDEX 01 53:06:30 
  TRACK 28 AUDIO 
    INDEX 01 54:48:09 
  TRACK 29 AUDIO 
    INDEX 01 56:23:58 
  TRACK 30 AUDIO 
    INDEX 01 58:35:71 
  TRACK 31 AUDIO 
    INDEX 01 60:29:00 
  TRACK 32 AUDIO 
    INDEX 01 62:29:00 
  TRACK 33 AUDIO 
    INDEX 01 64:35:71 
  TRACK 34 AUDIO 
    INDEX 01 65:59:33 
  TRACK 35 AUDIO 
    INDEX 01 67:52:36 
  TRACK 36 AUDIO 
    INDEX 01 69:38:41 
  TRACK 37 AUDIO 
    INDEX 01 70:55:06 
  TRACK 38 AUDIO 
    INDEX 01 72:37:52
Wertung: (1)  
Hinzugefügt: 5 April 2011
RSS Feed
RSS Feed
Sprache
Deutsch Englisch Französisch
Mixsuche
Suchbegriff
Genauer Wortlaut
Alle Worte (UND)
Ein Wort (ODER)
Statistik
14711 Mixe eingetragen
14399 Tracklisten
Newsletter
E-Mail
Anmelden
Abmelden
SPONSOREN