Mixkatalog
 Einloggen
Login
Passwort

Eurodance Party 1 Hits: 89  

Eurodance Party 1


Kurzbeschreibung:
Studio 33 präsentiert Eurodance Party Volume 1, gemixt von DJ Kama Sutra.
 
Crew/DJ: Studio 33 Reihe: Euro Dance Party
Stil: Dance Erscheinungsjahr: 1999
Anzahl Tonträger: 1 Spielzeit: 73:43
Trackliste:
Cue-Informationen:

FILE "filename.mp3" MP3
  TRACK 01 AUDIO
    INDEX 01 00:00:00
  TRACK 02 AUDIO
    INDEX 01 00:34:39
  TRACK 03 AUDIO
    INDEX 01 01:32:59
  TRACK 04 AUDIO
    INDEX 01 03:02:27
  TRACK 05 AUDIO
    INDEX 01 04:22:47
  TRACK 06 AUDIO
    INDEX 01 05:19:56
  TRACK 07 AUDIO
    INDEX 01 06:54:68
  TRACK 08 AUDIO
    INDEX 01 08:19:68
  TRACK 09 AUDIO
    INDEX 01 09:15:73
  TRACK 10 AUDIO
    INDEX 01 10:27:21
  TRACK 11 AUDIO
    INDEX 01 11:45:41
  TRACK 12 AUDIO
    INDEX 01 12:56:56
  TRACK 13 AUDIO
    INDEX 01 14:20:55
  TRACK 14 AUDIO
    INDEX 01 15:56:58
  TRACK 15 AUDIO
    INDEX 01 17:20:66
  TRACK 16 AUDIO
    INDEX 01 18:29:36
  TRACK 17 AUDIO
    INDEX 01 18:41:35
  TRACK 18 AUDIO
    INDEX 01 19:22:63
  TRACK 19 AUDIO
    INDEX 01 20:44:70
  TRACK 20 AUDIO
    INDEX 01 22:06:66
  TRACK 21 AUDIO
    INDEX 01 23:17:11
  TRACK 22 AUDIO
    INDEX 01 23:52:64
  TRACK 23 AUDIO
    INDEX 01 24:35:53
  TRACK 24 AUDIO
    INDEX 01 25:39:71
  TRACK 25 AUDIO
    INDEX 01 26:07:23
  TRACK 26 AUDIO
    INDEX 01 26:29:59
  TRACK 27 AUDIO
    INDEX 01 26:58:25
  TRACK 28 AUDIO
    INDEX 01 27:39:45
  TRACK 29 AUDIO
    INDEX 01 28:21:73
  TRACK 30 AUDIO
    INDEX 01 29:17:13
  TRACK 31 AUDIO
    INDEX 01 29:31:31
  TRACK 32 AUDIO
    INDEX 01 30:18:16
  TRACK 33 AUDIO
    INDEX 01 30:57:41
  TRACK 34 AUDIO
    INDEX 01 31:25:65
  TRACK 35 AUDIO
    INDEX 01 31:55:57
  TRACK 36 AUDIO
    INDEX 01 33:10:40
  TRACK 37 AUDIO
    INDEX 01 34:50:43
  TRACK 38 AUDIO
    INDEX 01 36:46:22
  TRACK 39 AUDIO
    INDEX 01 38:25:16
  TRACK 40 AUDIO
    INDEX 01 39:42:37
  TRACK 41 AUDIO
    INDEX 01 39:56:57
  TRACK 42 AUDIO
    INDEX 01 41:22:73
  TRACK 43 AUDIO
    INDEX 01 42:05:19
  TRACK 44 AUDIO
    INDEX 01 43:05:34
  TRACK 45 AUDIO
    INDEX 01 44:17:25
  TRACK 46 AUDIO
    INDEX 01 45:34:04
  TRACK 47 AUDIO
    INDEX 01 46:36:16
  TRACK 48 AUDIO
    INDEX 01 47:36:32
  TRACK 49 AUDIO
    INDEX 01 48:52:10
  TRACK 50 AUDIO
    INDEX 01 49:21:55
  TRACK 51 AUDIO
    INDEX 01 50:05:09
  TRACK 52 AUDIO
    INDEX 01 50:47:39
  TRACK 53 AUDIO
    INDEX 01 51:16:32
  TRACK 54 AUDIO
    INDEX 01 53:09:16
  TRACK 55 AUDIO
    INDEX 01 53:42:29
  TRACK 56 AUDIO
    INDEX 01 54:11:37
  TRACK 57 AUDIO
    INDEX 01 54:54:33
  TRACK 58 AUDIO
    INDEX 01 56:03:60
  TRACK 59 AUDIO
    INDEX 01 57:44:16
  TRACK 60 AUDIO
    INDEX 01 59:09:67
  TRACK 61 AUDIO
    INDEX 01 59:53:19
  TRACK 62 AUDIO
    INDEX 01 60:49:67
  TRACK 63 AUDIO
    INDEX 01 61:56:42
  TRACK 64 AUDIO
    INDEX 01 64:22:67
Wertung: (17)  
Hinzugefügt: 5 April 2011
RSS Feed
RSS Feed
Sprache
Deutsch Englisch Französisch
Mixsuche
Suchbegriff
Genauer Wortlaut
Alle Worte (UND)
Ein Wort (ODER)
Statistik
14581 Mixe eingetragen
14271 Tracklisten
Newsletter
E-Mail
Anmelden
Abmelden
SPONSOREN