Mixkatalog
 Einloggen
Login
Passwort

Black Box 1 Hits: 134  

Black Box 1


Kurzbeschreibung:
Studio 33 präsentiert Black Box Volume 1.
 
Crew/DJ: Studio 33 Reihe: Black Box
Stil: RnB Erscheinungsjahr: 2000
Anzahl Tonträger: 1 Spielzeit: 71:47
Trackliste:
Cue-Informationen:

FILE "filename.mp3" MP3
  TRACK 01 AUDIO
    INDEX 01 00:00:00
  TRACK 02 AUDIO
    INDEX 01 00:23:00
  TRACK 03 AUDIO
    INDEX 01 02:28:00
  TRACK 04 AUDIO
    INDEX 01 04:02:00
  TRACK 05 AUDIO
    INDEX 01 04:26:00
  TRACK 06 AUDIO
    INDEX 01 05:21:00
  TRACK 07 AUDIO
    INDEX 01 06:53:00
  TRACK 08 AUDIO
    INDEX 01 08:44:00
  TRACK 09 AUDIO
    INDEX 01 10:57:00
  TRACK 10 AUDIO
    INDEX 01 12:40:00
  TRACK 11 AUDIO
    INDEX 01 13:24:00
  TRACK 12 AUDIO
    INDEX 01 14:28:00
  TRACK 13 AUDIO
    INDEX 01 16:04:00
  TRACK 14 AUDIO
    INDEX 01 17:45:00
  TRACK 15 AUDIO
    INDEX 01 19:40:00
  TRACK 16 AUDIO
    INDEX 01 21:52:00
  TRACK 17 AUDIO
    INDEX 01 22:53:00
  TRACK 18 AUDIO
    INDEX 01 23:29:00
  TRACK 19 AUDIO
    INDEX 01 25:23:00
  TRACK 20 AUDIO
    INDEX 01 26:26:00
  TRACK 21 AUDIO
    INDEX 01 28:31:00
  TRACK 22 AUDIO
    INDEX 01 29:01:00
  TRACK 23 AUDIO
    INDEX 01 29:41:00
  TRACK 24 AUDIO
    INDEX 01 31:07:00
  TRACK 25 AUDIO
    INDEX 01 32:06:00
  TRACK 26 AUDIO
    INDEX 01 33:47:00
  TRACK 27 AUDIO
    INDEX 01 35:25:00
  TRACK 28 AUDIO
    INDEX 01 36:44:00
  TRACK 29 AUDIO
    INDEX 01 38:53:00
  TRACK 30 AUDIO
    INDEX 01 40:29:00
  TRACK 31 AUDIO
    INDEX 01 41:47:00
  TRACK 32 AUDIO
    INDEX 01 43:45:00
  TRACK 33 AUDIO
    INDEX 01 45:41:00
  TRACK 34 AUDIO
    INDEX 01 46:58:00
  TRACK 35 AUDIO
    INDEX 01 47:36:00
  TRACK 36 AUDIO
    INDEX 01 48:43:00
  TRACK 37 AUDIO
    INDEX 01 50:14:00
  TRACK 38 AUDIO
    INDEX 01 51:49:00
  TRACK 39 AUDIO
    INDEX 01 53:13:00
  TRACK 40 AUDIO
    INDEX 01 54:19:00
  TRACK 41 AUDIO
    INDEX 01 55:32:00
  TRACK 42 AUDIO
    INDEX 01 57:47:00
  TRACK 43 AUDIO
    INDEX 01 58:58:00
  TRACK 44 AUDIO
    INDEX 01 61:03:00
  TRACK 45 AUDIO
    INDEX 01 63:17:00
  TRACK 46 AUDIO
    INDEX 01 64:37:00
  TRACK 47 AUDIO
    INDEX 01 66:13:00
  TRACK 48 AUDIO
    INDEX 01 67:40:00
  TRACK 49 AUDIO
    INDEX 01 69:00:00 
Wertung: (1)  
Hinzugefügt: 5 April 2011
RSS Feed
RSS Feed
Sprache
Deutsch Englisch Französisch
Mixsuche
Suchbegriff
Genauer Wortlaut
Alle Worte (UND)
Ein Wort (ODER)
Statistik
13164 Mixe eingetragen
12872 Tracklisten
Newsletter
E-Mail
Anmelden
Abmelden
SPONSOREN