Mixkatalog
 Einloggen
Login
Passwort

Falco Future Megamix Hits: 564  

Falco Future Megamix


Kurzbeschreibung:
Future Records mit seinem Tribut to Falco (Johann "€žHans"€œ Hölzel). Die Größten Hits im Megamix.
 
Crew/DJ: Future Records Reihe: Megamix
Stil: Pop Erscheinungsjahr: 2008
CDs: 1 Spielzeit: 83:34
Trackliste:
Cue-Informationen:

FILE "filename.mp3" MP3
  TRACK 01 AUDIO
    INDEX 01 00:00:00
  TRACK 02 AUDIO
    INDEX 01 30:00:07
  TRACK 03 AUDIO
    INDEX 01 40:00:23
  TRACK 04 AUDIO
    INDEX 01 48:27:51
  TRACK 05 AUDIO
    INDEX 01 57:18:11
  TRACK 06 AUDIO
    INDEX 01 63:11:34
  TRACK 07 AUDIO
    INDEX 01 68:46:36
  TRACK 08 AUDIO
    INDEX 01 74:35:12
  TRACK 09 AUDIO
    INDEX 01 79:15:26
Wertung: (37)  
Hinzugefügt: 29 August 2009
RSS Feed
RSS Feed
Sprache
Deutsch Englisch Französisch
Mixsuche
Suchbegriff
Genauer Wortlaut
Alle Worte (UND)
Ein Wort (ODER)
Statistik
30199 Mixe eingetragen
28541 Tracklisten
Newsletter
E-Mail
Anmelden
Abmelden
SPONSOREN