Mixkatalog
 Einloggen
Login
Passwort

Die Lollies pres. Höllenparty Hitmix 03 Hits: 80  

Die Lollies pres. Höllenparty Hitmix 03


Kurzbeschreibung:
SWG präsentiert Die Lollies pres. Höllenparty Hitmix Volume 3. Ein Himmliches Vergnügen - 70 Hits im Megamix, gemixt von DJ Deep.
 
Crew/DJ: SWG Reihe: Die Lollies
Stil: Party Erscheinungsjahr: 2005
Anzahl Tonträger: 2 Spielzeit: 149:00
Trackliste:
Cue-Informationen:

FILE "filename CD 1.mp3" MP3
  TRACK 01 AUDIO
    INDEX 01 00:00:00
  TRACK 02 AUDIO
    INDEX 01 00:29:02
  TRACK 03 AUDIO
    INDEX 01 01:57:05
  TRACK 04 AUDIO
    INDEX 01 03:36:65
  TRACK 05 AUDIO
    INDEX 01 05:00:32
  TRACK 06 AUDIO
    INDEX 01 06:45:15
  TRACK 07 AUDIO
    INDEX 01 08:36:18
  TRACK 08 AUDIO
    INDEX 01 10:16:13
  TRACK 09 AUDIO
    INDEX 01 11:42:73
  TRACK 10 AUDIO
    INDEX 01 13:26:43
  TRACK 11 AUDIO
    INDEX 01 15:17:10
  TRACK 12 AUDIO
    INDEX 01 16:26:17
  TRACK 13 AUDIO
    INDEX 01 18:06:42
  TRACK 14 AUDIO
    INDEX 01 21:59:39
  TRACK 15 AUDIO
    INDEX 01 23:40:33
  TRACK 16 AUDIO
    INDEX 01 26:28:44
  TRACK 17 AUDIO
    INDEX 01 27:40:08
  TRACK 18 AUDIO
    INDEX 01 29:37:11
  TRACK 19 AUDIO
    INDEX 01 31:12:29
  TRACK 20 AUDIO
    INDEX 01 33:43:54
  TRACK 21 AUDIO
    INDEX 01 33:59:35
  TRACK 22 AUDIO
    INDEX 01 36:06:19
  TRACK 23 AUDIO
    INDEX 01 39:40:01
  TRACK 24 AUDIO
    INDEX 01 40:56:61
  TRACK 25 AUDIO
    INDEX 01 43:12:24
  TRACK 26 AUDIO
    INDEX 01 45:56:67
  TRACK 27 AUDIO
    INDEX 01 47:13:59
  TRACK 28 AUDIO
    INDEX 01 48:43:17
  TRACK 29 AUDIO
    INDEX 01 50:03:20
  TRACK 30 AUDIO
    INDEX 01 52:35:34
  TRACK 31 AUDIO
    INDEX 01 55:12:68
  TRACK 32 AUDIO
    INDEX 01 56:47:24
  TRACK 33 AUDIO
    INDEX 01 58:57:42
  TRACK 34 AUDIO
    INDEX 01 60:40:08
  TRACK 35 AUDIO
    INDEX 01 62:00:44
  TRACK 36 AUDIO
    INDEX 01 63:35:42
  TRACK 37 AUDIO
    INDEX 01 65:43:66
  TRACK 38 AUDIO
    INDEX 01 68:03:30
  TRACK 39 AUDIO
    INDEX 01 69:44:07
  TRACK 40 AUDIO
    INDEX 01 71:49:11

FILE "filename CD 2.mp3" MP3
  TRACK 01 AUDIO
    INDEX 01 00:00:00
  TRACK 02 AUDIO
    INDEX 01 00:30:49
  TRACK 03 AUDIO
    INDEX 01 02:16:40
  TRACK 04 AUDIO
    INDEX 01 03:30:46
  TRACK 05 AUDIO
    INDEX 01 04:55:24
  TRACK 06 AUDIO
    INDEX 01 06:07:56
  TRACK 07 AUDIO
    INDEX 01 07:40:51
  TRACK 08 AUDIO
    INDEX 01 09:04:72
  TRACK 09 AUDIO
    INDEX 01 10:28:48
  TRACK 10 AUDIO
    INDEX 01 12:06:25
  TRACK 11 AUDIO
    INDEX 01 13:57:62
  TRACK 12 AUDIO
    INDEX 01 15:50:10
  TRACK 13 AUDIO
    INDEX 01 16:56:71
  TRACK 14 AUDIO
    INDEX 01 19:18:15
  TRACK 15 AUDIO
    INDEX 01 20:40:37
  TRACK 16 AUDIO
    INDEX 01 21:47:52
  TRACK 17 AUDIO
    INDEX 01 23:14:55
  TRACK 18 AUDIO
    INDEX 01 24:29:27
  TRACK 19 AUDIO
    INDEX 01 25:41:16
  TRACK 20 AUDIO
    INDEX 01 27:02:37
  TRACK 21 AUDIO
    INDEX 01 29:44:73
  TRACK 22 AUDIO
    INDEX 01 30:00:73
  TRACK 23 AUDIO
    INDEX 01 32:05:63
  TRACK 24 AUDIO
    INDEX 01 33:43:23
  TRACK 25 AUDIO
    INDEX 01 35:38:07
  TRACK 26 AUDIO
    INDEX 01 38:16:27
  TRACK 27 AUDIO
    INDEX 01 40:45:43
  TRACK 28 AUDIO
    INDEX 01 42:24:43
  TRACK 29 AUDIO
    INDEX 01 43:16:48
  TRACK 30 AUDIO
    INDEX 01 45:13:33
  TRACK 31 AUDIO
    INDEX 01 47:34:53
  TRACK 32 AUDIO
    INDEX 01 51:04:11
  TRACK 33 AUDIO
    INDEX 01 52:43:57
  TRACK 34 AUDIO
    INDEX 01 54:32:66
  TRACK 35 AUDIO
    INDEX 01 57:04:22
  TRACK 36 AUDIO
    INDEX 01 59:58:14
  TRACK 37 AUDIO
    INDEX 01 61:44:54
  TRACK 38 AUDIO
    INDEX 01 64:15:30
  TRACK 39 AUDIO
    INDEX 01 68:24:08
Wertung: ()  
Hinzugefügt: 2 March 2011
Bewerte als Erster diesen Mix:
RSS Feed
RSS Feed
Sprache
Deutsch Englisch Französisch
Mixsuche
Suchbegriff
Genauer Wortlaut
Alle Worte (UND)
Ein Wort (ODER)
Statistik
36721 Mixe eingetragen
34784 Tracklisten
Newsletter
E-Mail
Anmelden
Abmelden
SPONSOREN