Mixkatalog
 Einloggen
Login
Passwort

80s Party Mix Hits: 360  

80s Party Mix


Kurzbeschreibung:
80s Party Mix. Over 120 80s Hits in One Mix! Der Mix entspricht dem Deep The Sound Of The 80s 1. Nicht alle Tracks sind auf Backcover genannt. Der Slow Part stammt vom Studio 33 Party Compilation 4.
 
Crew/DJ: Various 0-9 Reihe:  
Stil: Pop Erscheinungsjahr: 2004
Anzahl Tonträger: 1 Spielzeit: 77:32
Trackliste:
Cue-Informationen:

FILE "filename.mp3" MP3
  TRACK 01 AUDIO
    INDEX 01 00:00:00
  TRACK 02 AUDIO
    INDEX 01 00:23:12
  TRACK 03 AUDIO
    INDEX 01 00:59:00
  TRACK 04 AUDIO
    INDEX 01 04:10:44
  TRACK 05 AUDIO
    INDEX 01 06:50:13
  TRACK 06 AUDIO
    INDEX 01 08:46:58
  TRACK 07 AUDIO
    INDEX 01 10:45:19
  TRACK 08 AUDIO
    INDEX 01 11:55:16
  TRACK 09 AUDIO
    INDEX 01 12:39:13
  TRACK 10 AUDIO
    INDEX 01 13:28:18
  TRACK 11 AUDIO
    INDEX 01 14:28:53
  TRACK 12 AUDIO
    INDEX 01 16:18:12
  TRACK 13 AUDIO
    INDEX 01 17:23:30
  TRACK 14 AUDIO
    INDEX 01 18:04:74
  TRACK 15 AUDIO
    INDEX 01 19:44:04
  TRACK 16 AUDIO
    INDEX 01 20:25:19
  TRACK 17 AUDIO
    INDEX 01 22:17:36
  TRACK 18 AUDIO
    INDEX 01 23:46:22
  TRACK 19 AUDIO
    INDEX 01 24:32:73
  TRACK 20 AUDIO
    INDEX 01 26:33:37
  TRACK 21 AUDIO
    INDEX 01 29:19:21
  TRACK 22 AUDIO
    INDEX 01 31:39:52
  TRACK 23 AUDIO
    INDEX 01 32:11:07
  TRACK 24 AUDIO
    INDEX 01 32:58:13
  TRACK 25 AUDIO
    INDEX 01 34:32:38
  TRACK 26 AUDIO
    INDEX 01 34:55:07
  TRACK 27 AUDIO
    INDEX 01 36:10:23
  TRACK 28 AUDIO
    INDEX 01 36:57:74
  TRACK 29 AUDIO
    INDEX 01 38:03:56
  TRACK 30 AUDIO
    INDEX 01 38:52:72
  TRACK 31 AUDIO
    INDEX 01 40:42:18
  TRACK 32 AUDIO
    INDEX 01 41:57:57
  TRACK 33 AUDIO
    INDEX 01 42:35:13
  TRACK 34 AUDIO
    INDEX 01 42:58:28
  TRACK 35 AUDIO
    INDEX 01 43:28:59
  TRACK 36 AUDIO
    INDEX 01 45:13:70
  TRACK 37 AUDIO
    INDEX 01 45:50:39
  TRACK 38 AUDIO
    INDEX 01 48:02:49
  TRACK 39 AUDIO
    INDEX 01 49:15:43
  TRACK 40 AUDIO
    INDEX 01 49:59:26
  TRACK 41 AUDIO
    INDEX 01 50:29:42
  TRACK 42 AUDIO
    INDEX 01 51:14:02
  TRACK 43 AUDIO
    INDEX 01 51:57:08
  TRACK 44 AUDIO
    INDEX 01 53:00:17
  TRACK 45 AUDIO
    INDEX 01 54:54:25
  TRACK 46 AUDIO
    INDEX 01 55:55:24
  TRACK 47 AUDIO
    INDEX 01 57:12:05
  TRACK 48 AUDIO
    INDEX 01 58:43:00
  TRACK 49 AUDIO
    INDEX 01 59:21:18
  TRACK 50 AUDIO
    INDEX 01 60:06:68
  TRACK 51 AUDIO
    INDEX 01 60:47:27
  TRACK 52 AUDIO
    INDEX 01 61:41:28
  TRACK 53 AUDIO
    INDEX 01 62:21:10
  TRACK 54 AUDIO
    INDEX 01 71:12:38
Wertung: (1)  
Hinzugefügt: 10 February 2011
RSS Feed
RSS Feed
Sprache
Deutsch Englisch Französisch
Mixsuche
Suchbegriff
Genauer Wortlaut
Alle Worte (UND)
Ein Wort (ODER)
Statistik
13164 Mixe eingetragen
12872 Tracklisten
Newsletter
E-Mail
Anmelden
Abmelden
SPONSOREN