Mixkatalog
 Einloggen
Login
Passwort

Fiesta En Ibiza 2001 Hits: 1  

Fiesta En Ibiza 2001


Kurzbeschreibung:
Club 21 präsentiert Fiesta En Ibiza 2001, gemixt von DJ Loop.
 
Crew/DJ: Club 21 Reihe: Fiesta
Stil: Dance Erscheinungsjahr: 2001
Anzahl Tonträger: 1 Spielzeit: 74:14
Trackliste:
  1. Intro
  2. Shiva Detroit - This Night
  3. Alexia - Money Honey
  4. Saint Etien - Can't Fight The Moonlight
  5. Daddy DJ - Daddy DJ
  6. Astroline - Close My Eyes
  7. Floorfilla - Anthem #5
  8. Rouge - It Takes
  9. Phonix - Da Jam Is Pumpin'
  10. Maria & Maria - Yo Quiro Bailar
  11. De La Cruz feat. Taleesa - Listen To My Heart
  12. Clubbstars vs. KK Project - Theee Sounds
  13. New Kind feat. Five O - Unique (Dance Mix)
  14. DJ Crack - Sigular 2001
  15. DJ Darkzone - Power & Energy
  16. Eric Del Mar - Flatline
  17. Lalu - Shariva
  18. Wienna - Tell Me What To Do
  19. Out-Da-Way - Movin' Up
  20. Toybox - Superstar
  21. Paffendorf - Be Cool
  22. Ibiza Break
  23. R.A.M. - Dancing In The Moonlight
  24. Shorty vs. Black Legend - Somebody
  25. Ski Dakenfull - Where Did The Love Go
  26. Azzido Da Bass - Doom's Night
  27. Gigi D'Agostino - La Passion
  28. Moloko - Sing It Back
  29. Tom Novy feat. Verginia - I Rock
  30. The Underdog Project - Summerjam
    Bonustrack:
  31. Pyramid feat. Aisha - Round & Round
  32. Mr. Vinx - Living On My Own
  33. Flying Girl - Across The Universe
Cue-Informationen:

FILE "filename.mp3" MP3
  TRACK 01 AUDIO
    INDEX 01 00:00:00
  TRACK 02 AUDIO
    INDEX 01 02:40:50
  TRACK 03 AUDIO
    INDEX 01 04:47:73
  TRACK 04 AUDIO
    INDEX 01 07:03:27
  TRACK 05 AUDIO
    INDEX 01 09:35:66
  TRACK 06 AUDIO
    INDEX 01 11:45:72
  TRACK 07 AUDIO
    INDEX 01 12:40:38
  TRACK 08 AUDIO
    INDEX 01 15:35:07
  TRACK 09 AUDIO
    INDEX 01 16:43:31
  TRACK 10 AUDIO
    INDEX 01 19:10:12
  TRACK 11 AUDIO
    INDEX 01 21:08:08
  TRACK 12 AUDIO
    INDEX 01 23:14:52
  TRACK 13 AUDIO
    INDEX 01 25:55:69
  TRACK 14 AUDIO
    INDEX 01 28:59:62
  TRACK 15 AUDIO
    INDEX 01 32:03:62
  TRACK 16 AUDIO
    INDEX 01 36:13:39
  TRACK 17 AUDIO
    INDEX 01 38:20:15
  TRACK 18 AUDIO
    INDEX 01 39:57:21
  TRACK 19 AUDIO
    INDEX 01 41:36:16
  TRACK 20 AUDIO
    INDEX 01 43:13:27
  TRACK 21 AUDIO
    INDEX 01 45:06:25
  TRACK 22 AUDIO
    INDEX 01 46:45:10
  TRACK 23 AUDIO
    INDEX 01 49:32:25
  TRACK 24 AUDIO
    INDEX 01 51:36:08
  TRACK 25 AUDIO
    INDEX 01 53:13:37
  TRACK 26 AUDIO
    INDEX 01 54:13:37
  TRACK 27 AUDIO
    INDEX 01 57:04:08
  TRACK 28 AUDIO
    INDEX 01 59:11:43
  TRACK 29 AUDIO
    INDEX 01 61:56:36
  TRACK 30 AUDIO
    INDEX 01 63:43:10
  TRACK 31 AUDIO
    INDEX 01 67:32:05
  TRACK 32 AUDIO
    INDEX 01 70:43:71
Wertung: ()  
Hinzugefügt: 9 February 2011
Bewerte als Erster diesen Mix:
RSS Feed
RSS Feed
Sprache
Deutsch Englisch Französisch
Mixsuche
Suchbegriff
Genauer Wortlaut
Alle Worte (UND)
Ein Wort (ODER)
Statistik
14711 Mixe eingetragen
14399 Tracklisten
Newsletter
E-Mail
Anmelden
Abmelden
SPONSOREN