Mixkatalog
 Einloggen
Login
Passwort

The 022nd Story Hits: 427  

The 022nd Story


Kurzbeschreibung:
Mega Beats, Studio 33 The 22nd Story, gemixt von TNT.
 
Crew/DJ: Studio 33 Reihe: Story
Stil: Dance Erscheinungsjahr: 1998
CDs: 1 Spielzeit: 74:14
Trackliste:
Cue-Informationen:

FILE "filename.mp3" MP3 
  TRACK 01 AUDIO 
    INDEX 00 00:00:00 
  TRACK 02 AUDIO 
    INDEX 01 00:47:35 
  TRACK 03 AUDIO 
    INDEX 01 02:52:60 
  TRACK 04 AUDIO 
    INDEX 01 04:38:17 
  TRACK 05 AUDIO 
    INDEX 01 06:02:46 
  TRACK 06 AUDIO 
    INDEX 01 07:12:34 
  TRACK 07 AUDIO 
    INDEX 01 08:11:61 
  TRACK 08 AUDIO  
    INDEX 01 09:21:46 
  TRACK 09 AUDIO  
    INDEX 01 09:58:20 
  TRACK 10 AUDIO 
    INDEX 01 11:08:19 
  TRACK 11 AUDIO 
    INDEX 01 12:11:11 
  TRACK 12 AUDIO 
    INDEX 01 13:00:18 
  TRACK 13 AUDIO 
    INDEX 01 13:56:31 
  TRACK 14 AUDIO 
    INDEX 01 14:24:39 
  TRACK 15 AUDIO 
    INDEX 01 15:07:02 
  TRACK 16 AUDIO 
    INDEX 01 15:45:43 
  TRACK 17 AUDIO 
    INDEX 01 16:14:28 
  TRACK 18 AUDIO 
    INDEX 01 17:10:59 
  TRACK 19 AUDIO 
    INDEX 01 18:08:10 
  TRACK 20 AUDIO 
    INDEX 01 19:48:62 
  TRACK 21 AUDIO 
    INDEX 01 21:00:22 
  TRACK 22 AUDIO  
    INDEX 01 22:26:04 
  TRACK 23 AUDIO 
    INDEX 01 23:25:05 
  TRACK 24 AUDIO 
    INDEX 01 24:15:07 
  TRACK 25 AUDIO 
    INDEX 01 24:57:39 
  TRACK 26 AUDIO 
    INDEX 01 26:23:12 
  TRACK 27 AUDIO 
    INDEX 01 27:03:64 
  TRACK 28 AUDIO 
    INDEX 01 28:16:25 
  TRACK 29 AUDIO 
    INDEX 01 28:44:43 
  TRACK 30 AUDIO 
    INDEX 01 29:12:55 
  TRACK 31 AUDIO  
    INDEX 01 30:09:03 
  TRACK 32 AUDIO  
    INDEX 01 30:51:11 
  TRACK 33 AUDIO  
    INDEX 01 31:46:66 
  TRACK 34 AUDIO 
    INDEX 01 32:21:55 
  TRACK 35 AUDIO  
    INDEX 01 33:03:29 
  TRACK 36 AUDIO  
    INDEX 01 33:30:05 
  TRACK 37 AUDIO  
    INDEX 01 35:10:59 
  TRACK 38 AUDIO  
    INDEX 01 36:10:43 
  TRACK 39 AUDIO  
    INDEX 01 37:29:07 
  TRACK 40 AUDIO  
    INDEX 01 38:49:27 
  TRACK 41 AUDIO  
    INDEX 01 39:44:69 
  TRACK 42 AUDIO  
    INDEX 01 41:20:45 
  TRACK 43 AUDIO  
    INDEX 01 42:28:15 
  TRACK 44 AUDIO 
    INDEX 01 43:52:45 
  TRACK 45 AUDIO 
    INDEX 01 44:33:26 
  TRACK 46 AUDIO 
    INDEX 01 45:54:00 
  TRACK 47 AUDIO 
    INDEX 01 47:24:23 
  TRACK 48 AUDIO 
    INDEX 01 48:13:19 
  TRACK 49 AUDIO 
    INDEX 01 49:34:40 
  TRACK 50 AUDIO 
    INDEX 01 51:02:50 
  TRACK 51 AUDIO 
    INDEX 01 52:53:31 
  TRACK 52 AUDIO 
    INDEX 01 54:29:39 
  TRACK 53 AUDIO  
    INDEX 01 55:39:08 
  TRACK 54 AUDIO 
    INDEX 01 57:23:10 
  TRACK 55 AUDIO 
    INDEX 01 58:39:57 
  TRACK 56 AUDIO  
    INDEX 01 59:46:45 
  TRACK 57 AUDIO  
    INDEX 01 61:06:52 
  TRACK 58 AUDIO  
    INDEX 01 62:31:31 
  TRACK 59 AUDIO 
    INDEX 01 64:08:38 
  TRACK 60 AUDIO  
    INDEX 01 65:10:60 
  TRACK 61 AUDIO  
    INDEX 01 66:12:10 
  TRACK 62 AUDIO  
    INDEX 01 67:11:73 
  TRACK 63 AUDIO  
    INDEX 01 67:58:52 
  TRACK 64 AUDIO  
    INDEX 01 69:16:02 
  TRACK 65 AUDIO  
    INDEX 01 70:30:63 
  TRACK 66 AUDIO 
    INDEX 01 71:59:35 
  TRACK 67 AUDIO 
    INDEX 01 73:12:29
Wertung: (3)  
Hinzugefügt: 27 January 2009
RSS Feed
RSS Feed
Sprache
Deutsch Englisch Französisch
Mixsuche
Suchbegriff
Genauer Wortlaut
Alle Worte (UND)
Ein Wort (ODER)
Statistik
32424 Mixe eingetragen
30806 Tracklisten
Newsletter
E-Mail
Anmelden
Abmelden
SPONSOREN