Mixkatalog
 Einloggen
Login
Passwort

Fox For You 1 Hits: 438  

Fox For You 1


Kurzbeschreibung:
Mix For You (M.F.Y.) präsentiert den Fox For You Volume 1, gemixt von DJ Ton.
 
Crew/DJ: Mix For You Reihe: Fox For You
Stil: Fox Erscheinungsjahr: 1997
CDs: 1 Spielzeit: 74:01
Trackliste:
Cue-Informationen:

FILE "filename.mp3" MP3
  TRACK 01 AUDIO
    INDEX 01 00:00:00
  TRACK 02 AUDIO
    INDEX 01 02:01:50
  TRACK 03 AUDIO
    INDEX 01 03:24:67
  TRACK 04 AUDIO
    INDEX 01 04:50:05
  TRACK 05 AUDIO
    INDEX 01 06:09:52
  TRACK 06 AUDIO
    INDEX 01 08:09:00
  TRACK 07 AUDIO
    INDEX 01 09:26:67
  TRACK 08 AUDIO
    INDEX 01 10:40:37
  TRACK 09 AUDIO
    INDEX 01 11:46:10
  TRACK 10 AUDIO
    INDEX 01 13:23:60
  TRACK 11 AUDIO
    INDEX 01 15:01:25
  TRACK 12 AUDIO
    INDEX 01 16:36:60
  TRACK 13 AUDIO
    INDEX 01 17:54:60
  TRACK 14 AUDIO
    INDEX 01 19:05:25
  TRACK 15 AUDIO
    INDEX 01 20:41:00
  TRACK 16 AUDIO
    INDEX 01 21:58:57
  TRACK 17 AUDIO
    INDEX 01 23:18:50
  TRACK 18 AUDIO
    INDEX 01 24:40:60
  TRACK 19 AUDIO
    INDEX 01 26:03:32
  TRACK 20 AUDIO
    INDEX 01 28:17:37
  TRACK 21 AUDIO
    INDEX 01 30:12:45
  TRACK 22 AUDIO
    INDEX 01 33:34:40
  TRACK 23 AUDIO
    INDEX 01 40:08:35
  TRACK 24 AUDIO
    INDEX 01 45:44:67
  TRACK 25 AUDIO
    INDEX 01 51:51:02
  TRACK 26 AUDIO
    INDEX 01 58:51:37
  TRACK 27 AUDIO
    INDEX 01 63:23:62
Wertung: (2)  
Hinzugefügt: 22 January 2011
RSS Feed
RSS Feed
Sprache
Deutsch Englisch Französisch
Mixsuche
Suchbegriff
Genauer Wortlaut
Alle Worte (UND)
Ein Wort (ODER)
Statistik
29558 Mixe eingetragen
28148 Tracklisten
Newsletter
E-Mail
Anmelden
Abmelden
SPONSOREN