Mixkatalog
 Einloggen
Login
Passwort

Medium Cuts Phase 2 Hits: 214  

Medium Cuts Phase 2


Kurzbeschreibung:
8tnt präsentiert Medium Cuts Phase 2.
 
Crew/DJ: 8tnt Reihe: Medium Cuts
Stil: Dance Erscheinungsjahr: 1997
Anzahl Tonträger: 1 Spielzeit: 69:14
Trackliste:
Cue-Informationen:

FILE "filename.mp3" MP3
  TRACK 01 AUDIO
    INDEX 01 00:00:00
  TRACK 02 AUDIO
    INDEX 01 02:18:14
  TRACK 03 AUDIO
    INDEX 01 23:59:08
  TRACK 04 AUDIO
    INDEX 01 49:45:59
Wertung: (2)  
Hinzugefügt: 14 August 2009
RSS Feed
RSS Feed
Sprache
Deutsch Englisch Französisch
Mixsuche
Suchbegriff
Genauer Wortlaut
Alle Worte (UND)
Ein Wort (ODER)
Statistik
13015 Mixe eingetragen
12723 Tracklisten
Newsletter
E-Mail
Anmelden
Abmelden
SPONSOREN