Mixkatalog
 Einloggen
Login
Passwort

Vollgas Megamix Hits: 123  

Vollgas Megamix


Kurzbeschreibung:
SWG präsentiert Vollgas Megamix, gemixt von DJ Deep.
 
Crew/DJ: SWG Reihe: Sonstige
Stil: Dance Erscheinungsjahr: 2005
Anzahl Tonträger: 2 Spielzeit: 127:28
Trackliste:
Cue-Informationen:

FILE "filename CD 1.mp3" MP3
  TRACK 01 AUDIO
    INDEX 01 00:00:00
  TRACK 02 AUDIO
    INDEX 01 02:17:31
  TRACK 03 AUDIO
    INDEX 01 03:50:32
  TRACK 04 AUDIO
    INDEX 01 05:28:56
  TRACK 05 AUDIO
    INDEX 01 06:52:48
  TRACK 06 AUDIO
    INDEX 01 08:29:19
  TRACK 07 AUDIO
    INDEX 01 10:49:05
  TRACK 08 AUDIO
    INDEX 01 11:58:58
  TRACK 09 AUDIO
    INDEX 01 14:03:60
  TRACK 10 AUDIO
    INDEX 01 15:54:07
  TRACK 11 AUDIO
    INDEX 01 18:41:21
  TRACK 12 AUDIO
    INDEX 01 20:59:46
  TRACK 13 AUDIO
    INDEX 01 23:25:67
  TRACK 14 AUDIO
    INDEX 01 24:38:08
  TRACK 15 AUDIO
    INDEX 01 26:15:39
  TRACK 16 AUDIO
    INDEX 01 28:16:27
  TRACK 17 AUDIO
    INDEX 01 30:42:23
  TRACK 18 AUDIO
    INDEX 01 32:13:68
  TRACK 19 AUDIO
    INDEX 01 34:29:39
  TRACK 20 AUDIO
    INDEX 01 36:44:70
  TRACK 21 AUDIO
    INDEX 01 39:14:39
  TRACK 22 AUDIO
    INDEX 01 40:42:24
  TRACK 23 AUDIO
    INDEX 01 43:12:11
  TRACK 24 AUDIO
    INDEX 01 46:05:56
  TRACK 25 AUDIO
    INDEX 01 47:43:02
  TRACK 26 AUDIO
    INDEX 01 50:27:56
  TRACK 27 AUDIO
    INDEX 01 52:25:45
  TRACK 28 AUDIO
    INDEX 01 56:11:15
  TRACK 29 AUDIO
    INDEX 01 57:58:58

FILE "filename CD 2.mp3" MP3
  TRACK 01 AUDIO
    INDEX 01 00:00:00
  TRACK 02 AUDIO
    INDEX 01 02:07:07
  TRACK 03 AUDIO
    INDEX 01 04:35:46
  TRACK 04 AUDIO
    INDEX 01 07:47:44
  TRACK 05 AUDIO
    INDEX 01 09:17:42
  TRACK 06 AUDIO
    INDEX 01 11:30:18
  TRACK 07 AUDIO
    INDEX 01 15:11:45
  TRACK 08 AUDIO
    INDEX 01 16:51:59
  TRACK 09 AUDIO
    INDEX 01 18:49:55
  TRACK 10 AUDIO
    INDEX 01 20:36:61
  TRACK 11 AUDIO
    INDEX 01 21:34:65
  TRACK 12 AUDIO
    INDEX 01 23:17:06
  TRACK 13 AUDIO
    INDEX 01 24:31:02
  TRACK 14 AUDIO
    INDEX 01 25:57:52
  TRACK 15 AUDIO
    INDEX 01 28:50:46
  TRACK 16 AUDIO
    INDEX 01 30:25:54
  TRACK 17 AUDIO
    INDEX 01 32:50:32
  TRACK 18 AUDIO
    INDEX 01 35:50:66
  TRACK 19 AUDIO
    INDEX 01 38:09:61
  TRACK 20 AUDIO
    INDEX 01 40:55:04
  TRACK 21 AUDIO
    INDEX 01 42:59:21
  TRACK 22 AUDIO
    INDEX 01 44:32:70
  TRACK 23 AUDIO
    INDEX 01 47:11:45
  TRACK 24 AUDIO
    INDEX 01 49:32:55
  TRACK 25 AUDIO
    INDEX 01 52:30:06
  TRACK 26 AUDIO
    INDEX 01 56:32:74
  TRACK 27 AUDIO
    INDEX 01 58:40:17
  TRACK 28 AUDIO
    INDEX 01 61:59:50
Wertung: (1)  
Hinzugefügt: 16 January 2011
RSS Feed
RSS Feed
Sprache
Deutsch Englisch Französisch
Mixsuche
Suchbegriff
Genauer Wortlaut
Alle Worte (UND)
Ein Wort (ODER)
Statistik
13418 Mixe eingetragen
13124 Tracklisten
Newsletter
E-Mail
Anmelden
Abmelden
SPONSOREN