Mixkatalog
 Einloggen
Login
Passwort

Dance Xplosion 22 Hits: 155  

Dance Xplosion 22


Kurzbeschreibung:
Magic (MPA) präsentiert Dance Xplosion Volume 22, gemixt von Andrew Scott. Yearmix 1997 - The Best Of Black & Downtown.
 
Crew/DJ: Magic (MPA) Reihe: Dance X-Plosion
Stil: RnB Erscheinungsjahr: 1998
Anzahl Tonträger: 1 Spielzeit: 70:29
Trackliste:
Cue-Informationen:

FILE "filename.mp3" MP3
  TRACK 01 AUDIO
    INDEX 01 00:00:00
  TRACK 02 AUDIO
    INDEX 01 08:20:26
  TRACK 03 AUDIO
    INDEX 01 13:49:07
  TRACK 04 AUDIO
    INDEX 01 19:50:28
  TRACK 05 AUDIO
    INDEX 01 25:04:21
  TRACK 06 AUDIO
    INDEX 01 33:55:02
  TRACK 07 AUDIO
    INDEX 01 41:56:36
  TRACK 08 AUDIO
    INDEX 01 49:30:64
  TRACK 09 AUDIO
    INDEX 01 57:19:36
  TRACK 10 AUDIO
    INDEX 01 63:33:50
Wertung: (3)  
Hinzugefügt: 23 December 2010
RSS Feed
RSS Feed
Sprache
Deutsch Englisch Französisch
Mixsuche
Suchbegriff
Genauer Wortlaut
Alle Worte (UND)
Ein Wort (ODER)
Statistik
36265 Mixe eingetragen
34315 Tracklisten
Newsletter
E-Mail
Anmelden
Abmelden
SPONSOREN