Mixkatalog
 Einloggen
Login
Passwort

Dance Xplosion 12 Hits: 270  

Dance Xplosion 12


Kurzbeschreibung:
Magic (MPA) präsentiert Dance Xplosion Volume 12, gemixt von Andrew Scott. 1996 Yearmix - The Best Dancemusic!
 
Crew/DJ: Magic (MPA) Reihe: Dance X-Plosion
Stil: Dance Erscheinungsjahr: 1996
CDs: 1 Spielzeit: 74:41
Trackliste:
Cue-Informationen:

FILE "filename.mp3" MP3
  TRACK 01 AUDIO
    INDEX 01 00:00:30
  TRACK 02 AUDIO
    INDEX 01 00:31:17
  TRACK 03 AUDIO
    INDEX 01 02:54:16
  TRACK 04 AUDIO
    INDEX 01 05:36:42
  TRACK 05 AUDIO
    INDEX 01 07:40:37
  TRACK 06 AUDIO
    INDEX 01 09:42:07
  TRACK 07 AUDIO
    INDEX 01 11:56:56
  TRACK 08 AUDIO
    INDEX 01 14:25:36
  TRACK 09 AUDIO
    INDEX 01 17:02:32
  TRACK 10 AUDIO
    INDEX 01 19:21:40
  TRACK 11 AUDIO
    INDEX 01 21:07:67
  TRACK 12 AUDIO
    INDEX 01 23:42:07
  TRACK 13 AUDIO
    INDEX 01 26:29:01
  TRACK 14 AUDIO
    INDEX 01 29:09:63
  TRACK 15 AUDIO
    INDEX 01 32:11:11
  TRACK 16 AUDIO
    INDEX 01 34:15:68
  TRACK 17 AUDIO
    INDEX 01 36:35:60
  TRACK 18 AUDIO
    INDEX 01 38:40:35
  TRACK 19 AUDIO
    INDEX 01 40:48:27
  TRACK 20 AUDIO
    INDEX 01 42:29:43
  TRACK 21 AUDIO
    INDEX 01 44:46:30
  TRACK 22 AUDIO
    INDEX 01 47:02:43
  TRACK 23 AUDIO
    INDEX 01 49:12:15
  TRACK 24 AUDIO
    INDEX 01 51:12:02
  TRACK 25 AUDIO
    INDEX 01 54:26:09
  TRACK 26 AUDIO
    INDEX 01 54:44:38
  TRACK 27 AUDIO
    INDEX 01 55:17:62
  TRACK 28 AUDIO
    INDEX 01 56:11:63
  TRACK 29 AUDIO
    INDEX 01 56:49:18
  TRACK 30 AUDIO
    INDEX 01 57:33:53
  TRACK 31 AUDIO
    INDEX 01 58:19:56
  TRACK 32 AUDIO
    INDEX 01 59:02:52
  TRACK 33 AUDIO
    INDEX 01 59:58:16
  TRACK 34 AUDIO
    INDEX 01 61:00:52
  TRACK 35 AUDIO
    INDEX 01 61:53:30
  TRACK 36 AUDIO
    INDEX 01 63:02:64
  TRACK 37 AUDIO
    INDEX 01 63:58:37
  TRACK 38 AUDIO
    INDEX 01 64:21:33
  TRACK 39 AUDIO
    INDEX 01 64:42:70
  TRACK 40 AUDIO
    INDEX 01 65:27:28
  TRACK 41 AUDIO
    INDEX 01 66:18:22
  TRACK 42 AUDIO
    INDEX 01 67:07:60
  TRACK 43 AUDIO
    INDEX 01 67:41:60
  TRACK 44 AUDIO
    INDEX 01 68:48:07
  TRACK 45 AUDIO
    INDEX 01 69:49:15
  TRACK 46 AUDIO
    INDEX 01 70:22:40
  TRACK 47 AUDIO
    INDEX 01 71:05:40
  TRACK 48 AUDIO
    INDEX 01 71:54:48
  TRACK 49 AUDIO
    INDEX 01 72:52:31
  TRACK 50 AUDIO
    INDEX 01 73:53:49
Wertung: (1)  
Hinzugefügt: 21 December 2010
RSS Feed
RSS Feed
Sprache
Deutsch Englisch Französisch
Mixsuche
Suchbegriff
Genauer Wortlaut
Alle Worte (UND)
Ein Wort (ODER)
Statistik
30033 Mixe eingetragen
28406 Tracklisten
Newsletter
E-Mail
Anmelden
Abmelden
SPONSOREN