Mixkatalog
 Einloggen
Login
Passwort

Dance Xplosion 05 Hits: 36  

Dance Xplosion 05


Kurzbeschreibung:
Magic (MPA) präsentiert Dance Xplosion Volume 5.
 
Crew/DJ: Magic (MPA) Reihe: Dance X-Plosion
Stil: Dance Erscheinungsjahr: 1996
CDs: 1 Spielzeit: 71:38
Trackliste:
Cue-Informationen:

FILE "filename.mp3" MP3
  TRACK 01 AUDIO
    INDEX 01 00:00:30
  TRACK 02 AUDIO
    INDEX 01 00:21:72
  TRACK 03 AUDIO
    INDEX 01 02:22:54
  TRACK 04 AUDIO
    INDEX 01 03:43:03
  TRACK 05 AUDIO
    INDEX 01 04:49:51
  TRACK 06 AUDIO
    INDEX 01 06:11:57
  TRACK 07 AUDIO
    INDEX 01 07:24:38
  TRACK 08 AUDIO
    INDEX 01 08:45:44
  TRACK 09 AUDIO
    INDEX 01 09:34:25
  TRACK 10 AUDIO
    INDEX 01 10:41:19
  TRACK 11 AUDIO
    INDEX 01 11:56:58
  TRACK 12 AUDIO
    INDEX 01 12:56:68
  TRACK 13 AUDIO
    INDEX 01 14:14:36
  TRACK 14 AUDIO
    INDEX 01 15:26:54
  TRACK 15 AUDIO
    INDEX 01 16:49:29
  TRACK 16 AUDIO
    INDEX 01 17:53:48
  TRACK 17 AUDIO
    INDEX 01 19:06:38
  TRACK 18 AUDIO
    INDEX 01 20:18:21
  TRACK 19 AUDIO
    INDEX 01 21:17:67
  TRACK 20 AUDIO
    INDEX 01 22:55:38
  TRACK 21 AUDIO
    INDEX 01 24:10:63
  TRACK 22 AUDIO
    INDEX 01 24:53:52
  TRACK 23 AUDIO
    INDEX 01 25:34:34
  TRACK 24 AUDIO
    INDEX 01 26:33:14
  TRACK 25 AUDIO
    INDEX 01 27:19:07
  TRACK 26 AUDIO
    INDEX 01 28:05:17
  TRACK 27 AUDIO
    INDEX 01 29:04:26
  TRACK 28 AUDIO
    INDEX 01 30:07:39
  TRACK 29 AUDIO
    INDEX 01 31:45:01
  TRACK 30 AUDIO
    INDEX 01 33:46:26
  TRACK 31 AUDIO
    INDEX 01 35:27:05
  TRACK 32 AUDIO
    INDEX 01 37:19:16
  TRACK 33 AUDIO
    INDEX 01 38:48:34
  TRACK 34 AUDIO
    INDEX 01 40:00:73
  TRACK 35 AUDIO
    INDEX 01 41:16:59
  TRACK 36 AUDIO
    INDEX 01 42:21:69
  TRACK 37 AUDIO
    INDEX 01 44:04:54
  TRACK 38 AUDIO
    INDEX 01 45:21:53
  TRACK 39 AUDIO
    INDEX 01 46:51:41
  TRACK 40 AUDIO
    INDEX 01 48:21:07
  TRACK 41 AUDIO
    INDEX 01 49:32:47
  TRACK 42 AUDIO
    INDEX 01 50:52:24
  TRACK 43 AUDIO
    INDEX 01 52:11:10
  TRACK 44 AUDIO
    INDEX 01 53:50:59
  TRACK 45 AUDIO
    INDEX 01 55:15:66
  TRACK 46 AUDIO
    INDEX 01 57:04:14
  TRACK 47 AUDIO
    INDEX 01 58:51:28
  TRACK 48 AUDIO
    INDEX 01 60:05:25
  TRACK 49 AUDIO
    INDEX 01 61:58:64
  TRACK 50 AUDIO
    INDEX 01 63:34:69
  TRACK 51 AUDIO
    INDEX 01 65:45:48
Wertung: (20)  
Hinzugefügt: 21 December 2010
RSS Feed
RSS Feed
Sprache
Deutsch Englisch Französisch
Mixsuche
Suchbegriff
Genauer Wortlaut
Alle Worte (UND)
Ein Wort (ODER)
Statistik
34555 Mixe eingetragen
32680 Tracklisten
Newsletter
E-Mail
Anmelden
Abmelden
SPONSOREN