Mixkatalog
 Einloggen
Login
Passwort

Marius Müller Westernhagen Partymix 2 Hits: 840  

Marius Müller Westernhagen Partymix 2


Kurzbeschreibung:
Marius Müller Westernhagen (MMW) Partymix Volume 2. Extra Bonustracks zum Feiern!
 
Crew/DJ: M Reihe: Marius Müller Westernhagen
Stil: Rock Erscheinungsjahr: 1996
Anzahl Tonträger: 1 Spielzeit: 73:41
Trackliste:
Cue-Informationen:

FILE "filename.mp3" MP3
  TRACK 01 AUDIO
    INDEX 01 00:00:00
  TRACK 02 AUDIO
    INDEX 01 32:16:72
  TRACK 03 AUDIO
    INDEX 01 39:00:22
  TRACK 04 AUDIO
    INDEX 01 43:36:57
  TRACK 05 AUDIO
    INDEX 01 45:42:55
  TRACK 06 AUDIO
    INDEX 01 47:40:65
  TRACK 07 AUDIO
    INDEX 01 49:53:70
  TRACK 08 AUDIO
    INDEX 01 52:18:07
  TRACK 09 AUDIO
    INDEX 01 55:00:70
  TRACK 10 AUDIO
    INDEX 01 57:13:60
  TRACK 11 AUDIO
    INDEX 01 60:56:10
  TRACK 12 AUDIO
    INDEX 01 63:19:05
  TRACK 13 AUDIO
    INDEX 01 66:13:52
  TRACK 14 AUDIO
    INDEX 01 69:33:10
Wertung: (1)  
Hinzugefügt: 16 December 2010
RSS Feed
RSS Feed
Sprache
Deutsch Englisch Französisch
Mixsuche
Suchbegriff
Genauer Wortlaut
Alle Worte (UND)
Ein Wort (ODER)
Statistik
12238 Mixe eingetragen
11978 Tracklisten
Newsletter
E-Mail
Anmelden
Abmelden
SPONSOREN