Mixkatalog
 Einloggen
Login
Passwort

Die Toten Hosen Horror Remix Hits: 333  

Die Toten Hosen Horror Remix


Kurzbeschreibung:
Die Toten Hosen - Horror Remix. Damen + Reich & Sexy = Horrorremix.
 
Crew/DJ: D Reihe: Die Toten Hosen
Stil: Rock Erscheinungsjahr: 1995
Anzahl Tonträger: 1 Spielzeit: 55:23
Trackliste:
Cue-Informationen:

FILE "filename.mp3" MP3
  TRACK 01 AUDIO
    INDEX 01 00:00:00
  TRACK 02 AUDIO
    INDEX 01 17:20:60
  TRACK 03 AUDIO
    INDEX 01 30:15:00
  TRACK 04 AUDIO
    INDEX 01 49:15:35
Wertung: (5)  
Hinzugefügt: 16 December 2010
RSS Feed
RSS Feed
Sprache
Deutsch Englisch Französisch
Mixsuche
Suchbegriff
Genauer Wortlaut
Alle Worte (UND)
Ein Wort (ODER)
Statistik
12347 Mixe eingetragen
12061 Tracklisten
Newsletter
E-Mail
Anmelden
Abmelden
SPONSOREN