Mixkatalog
 Einloggen
Login
Passwort

The Ultimate Collection 2 Hits: 109  

The Ultimate Collection 2


Kurzbeschreibung:
Germix präsentiert The Ultimate Collection Volume 2. Enthält Mixe & Remixe von Roger Hundt, Martin Sak, DJ Sven Schmidt, DJ Alf The R.
 
Crew/DJ: Germix Reihe: Collection
Stil: Dance Erscheinungsjahr: 1992
Anzahl Tonträger: 1 Spielzeit: 76:05
Trackliste:
Cue-Informationen:

FILE "filename.mp3" MP3
  TRACK 01 AUDIO
    INDEX 01 00:00:00
  TRACK 02 AUDIO
    INDEX 01 25:32:22
  TRACK 03 AUDIO
    INDEX 01 30:25:58
  TRACK 04 AUDIO
    INDEX 01 41:17:00
  TRACK 05 AUDIO
    INDEX 01 54:21:40
  TRACK 06 AUDIO
    INDEX 01 70:54:51
Wertung: (5)  
Hinzugefügt: 29 November 2010
RSS Feed
RSS Feed
Sprache
Deutsch Englisch Französisch
Mixsuche
Suchbegriff
Genauer Wortlaut
Alle Worte (UND)
Ein Wort (ODER)
Statistik
35707 Mixe eingetragen
33762 Tracklisten
Newsletter
E-Mail
Anmelden
Abmelden
SPONSOREN