Mixkatalog
 Einloggen
Login
Passwort

Yearmix 2010 Hits: 1057  

Yearmix 2010


Kurzbeschreibung:
DJ Scooby präsentiert Yearmix 2010.
 
Crew/DJ: DJ Scooby Reihe: Yearmix
Stil: Dance Erscheinungsjahr: 2010
CDs: 1 Spielzeit: 78:58
Trackliste:
Cue-Informationen:

FILE "filename.mp3" MP3
  TRACK 01 AUDIO
    INDEX 01 00:00:00
  TRACK 02 AUDIO
    INDEX 01 09:50:51
  TRACK 03 AUDIO
    INDEX 01 20:43:11
  TRACK 04 AUDIO
    INDEX 01 29:55:38
  TRACK 05 AUDIO
    INDEX 01 38:10:69
  TRACK 06 AUDIO
    INDEX 01 48:37:28
  TRACK 07 AUDIO
    INDEX 01 57:45:28
  TRACK 08 AUDIO
    INDEX 01 67:00:56
Wertung: (2)  
Hinzugefügt: 29 November 2010
RSS Feed
RSS Feed
Sprache
Deutsch Englisch Französisch
Mixsuche
Suchbegriff
Genauer Wortlaut
Alle Worte (UND)
Ein Wort (ODER)
Statistik
30033 Mixe eingetragen
28406 Tracklisten
Newsletter
E-Mail
Anmelden
Abmelden
SPONSOREN