Mixkatalog
 Einloggen
Login
Passwort

The Yearmix Show 2008 Hits: 368  

The Yearmix Show 2008


Kurzbeschreibung:
Deep präsentiert Yearmix 2008 (The Yearmix Show 2008), gemixt von DJ Deep.
 
Crew/DJ: Deep Reihe: Deep Yearmix
Stil: Dance Erscheinungsjahr: 2008
Anzahl Tonträger: 1 Spielzeit: 79:29
Trackliste:
Cue-Informationen:

FILE "filename.mp3" MP3
  TRACK 01 AUDIO
    INDEX 01 00:00:00
  TRACK 02 AUDIO
    INDEX 01 00:34:41
  TRACK 03 AUDIO
    INDEX 01 07:46:38
  TRACK 04 AUDIO
    INDEX 01 13:54:10
  TRACK 05 AUDIO
    INDEX 01 21:58:67
  TRACK 06 AUDIO
    INDEX 01 28:14:50
  TRACK 07 AUDIO
    INDEX 01 34:02:42
  TRACK 08 AUDIO
    INDEX 01 40:42:31
  TRACK 09 AUDIO
    INDEX 01 48:23:22
  TRACK 10 AUDIO
    INDEX 01 55:47:71
  TRACK 11 AUDIO
    INDEX 01 62:25:45
  TRACK 12 AUDIO
    INDEX 01 70:30:41
Wertung: (1)  
Hinzugefügt: 28 November 2010
RSS Feed
RSS Feed
Sprache
Deutsch Englisch Französisch
Mixsuche
Suchbegriff
Genauer Wortlaut
Alle Worte (UND)
Ein Wort (ODER)
Statistik
13748 Mixe eingetragen
13445 Tracklisten
Newsletter
E-Mail
Anmelden
Abmelden
SPONSOREN