Mixkatalog
 Einloggen
Login
Passwort

The Yearmix Show 2002 Hits: 72  

The Yearmix Show 2002


Kurzbeschreibung:
Deep präsentiert Deep Yearmix 2002 - Uncut & Original (The Yearmix Show 2002), gemixt von DJ Deep. Der Mix erschien auch als Yearmix 2002.
 
Crew/DJ: Deep Reihe: Deep Yearmix
Stil: Dance Erscheinungsjahr: 2002
CDs: 1 Spielzeit: 79:14
Trackliste:
Cue-Informationen:

FILE "filename.mp3" MP3
  TRACK 01 AUDIO
    INDEX 01 00:00:00
  TRACK 02 AUDIO
    INDEX 01 06:02:04
  TRACK 03 AUDIO
    INDEX 01 12:00:38
  TRACK 04 AUDIO
    INDEX 01 18:17:08
  TRACK 05 AUDIO
    INDEX 01 24:03:56
  TRACK 06 AUDIO
    INDEX 01 31:10:42
  TRACK 07 AUDIO
    INDEX 01 37:28:60
  TRACK 08 AUDIO
    INDEX 01 44:02:55
  TRACK 09 AUDIO
    INDEX 01 50:44:00
  TRACK 10 AUDIO
    INDEX 01 56:19:08
  TRACK 11 AUDIO
    INDEX 01 62:26:23
  TRACK 12 AUDIO
    INDEX 01 67:30:29
Wertung: (1)  
Hinzugefügt: 28 November 2010
RSS Feed
RSS Feed
Sprache
Deutsch Englisch Französisch
Mixsuche
Suchbegriff
Genauer Wortlaut
Alle Worte (UND)
Ein Wort (ODER)
Statistik
28762 Mixe eingetragen
27364 Tracklisten
Newsletter
E-Mail
Anmelden
Abmelden
SPONSOREN