Mixkatalog
 Einloggen
Login
Passwort

The Yearmix Show 2006 Hits: 2  

The Yearmix Show 2006


Kurzbeschreibung:
Deep Records präsentiert The Yearmix Show 2006, gemixt von DJ Deep. Mix erschien auch als The Time Travel 2006.
 
Crew/DJ: Deep Records Reihe: Deep Yearmix
Stil: Dance Erscheinungsjahr: 2006
Anzahl Tonträger: 1 Spielzeit: 79:41
Trackliste:
    The Yearmix Show 2006:
    Spieldauer 79'41
  1. Intro
  2. Rihanna - Unfaithful
  3. Martin Jondo - Are You Really Waiting
  4. James Blunt - Wisemen
  5. James Morrison - You Give Me Something
  6. James Blunt - High
  7. Jojo - Too Little Too Late
  8. Rapsoul - Gott Schenk Ihr Flügel
  9. Lee Ryan - Turn Your Car Around
  10. Beyoncé - Irreplaceable
  11. Take That - Patience
  12. Simon WeB.B.E. - No Worries
  13. Lionel Richie - I Call It Love
  14. Flipsyde - Happy Birthday
  15. Lily Allen - Smile
  16. Marie Serneholt - Thats The Way My Heart Goes
  17. Eric Benet Yvonne Catterfeld - Where Does The Love Go
  18. Blue Lagoon - Isle Of Paradise
  19. Shakira Wyclef Jean - Hips Don't Lie
  20. Nelly Furtado - All Good Things Come To An End
  21. Chris Brown - Run It
  22. Paris Hilton - Stars Are Blind
  23. Marquess - El Temperamento
  24. The Pussycat Dolls - Beep
  25. Lemon Ice - Stand By Me
  26. Vibekingz - Shes Like The Wind
  27. Shawn Desman - Lets Go
  28. Pachanga - Close To You
  29. Busta Rhymes - I Love My Bitch
  30. Karmah - Just Be Good To Me
  31. The Pussycat Dolls - Buttons
  32. The Pussycat Dolls - I Don't Need A Man
  33. Beyoncé - Déjà Vu
  34. Flipsyde - Trumpets Never Be The Same Again
  35. The Source feat. Candy Staton - You Got The Love
  36. Sandi Thom - I Wish I Was Punk Rocker
  37. Scissor Sisters - I Dont Feel Like Dancing
  38. Robbie Williams - Rudebox
  39. Robbie Williams - Sin Sin Sin
  40. Sebastian Hämer - Sommer Unseres Lebens
  41. Gnarls Barkley - Crazy
  42. Robbie Williams - Advertising Space
  43. Silbermond - Das Beste
  44. Tom Novy - Unexpected
  45. Royksopp - What Else Is There
  46. Justin Timberlake - Sexyback
  47. Akon feat. Eminem - Smack That
  48. Justin Timberlake - My Love
  49. Goleo VI pres. Lumidee vs. Fatman Scoop - Dance
  50. Gwen Stefani - Wind It Up
  51. Seeed - Ding
  52. Madonna - Jump
  53. Lordi - Hard Rock Halleluja
  54. Coldplay - The Hardest Part
  55. Shapeshifters - Incredible
  56. Luther Vandross - Shine
  57. Dirty Old Ann - Turn Me On
  58. Paxi - Fixi
  59. Apostackers - Apostackers
  60. DJ Delicious - Same Man
  61. Outwork - Electro
  62. The L.A. Project feat. Rozalla - All Or Nothing
  63. George Michael - This Is Not Real Love
  64. Michael Gray - Borderline
  65. Untouchable 3 - That Once In A Lifetime
  66. Dhany - Miles Of Love
  67. Bob Sinclar - World Hold On
  68. John Acquaviva - No Fear
  69. Bananarama - Move In My Direction
  70. David Guetta vs. The Egg - Love Don't Let Me Go
  71. Hot Banditoz - I Want It That Way
  72. Sean Paul - Temperature
  73. Bob Sinclar - Love Generation
  74. The Caramel Club - Mama Say Mama Sa
  75. Beat Freakz - Somebody's Watching Me
  76. Bob Sinclar - Rock This Party
  77. Fedde Le Grand - Put Your Hands Up For Detroit
  78. Roger Sanchez - Lost
  79. Felix The Cat - Bye Bye Baby
  80. Shaun Baker - Bakerman
  81. Meck feat. Leo Sayer - Thunder In My Heart
  82. Herbert Grönemeyer Kurd Maverick - Zeit Das Sich Was Dreht
  83. DJ Rob Boskamp - In The Evening
  84. Phunk-A-Delic - Rockin
  85. P!nk - U & Ur Hand
  86. Roger Sanchez - Turn On The Music
  87. Hi-Tack - Say Say Say
  88. Loleatta Holloway - Love Sensation
  89. September - Satellites
  90. Supermode - Tell Me Why
  91. Antoine Clamaran - Keep On Tryin
  92. The Disco Boys - Hey St. Peter
  93. Rosenstolz - Auch Im Regen
  94. Tom Novy Lima - Take It
  95. Fonzerelli - Moonlight Party
  96. Cuba Club - Im Only Shooting Love
  97. Deep Dish feat. Stevie Nicks - Dreams
  98. Paris Hilton - Nothing In This World
  99. Apoptygma Berzerk - Shine On
  100. Beyoncé - Ring The Alarm
  101. Cuba Club - Cuba
  102. Tiësto feat. Maxi Jazz - Dance 4 Life
  103. Nelly Furtado - Maneater
  104. Beat Freakz - Superfreak
  105. Madonna - Sorry
  106. Kelly Clarkson - Because Of You
  107. Oliver Pocher - Schwarz und Weiss
  108. Sportfreunde Stiller - 54-74-90-2010
  109. Rihanna - S.O.S.
  110. G-Spott - Sadness
  111. First Impression - 9 Million Bicylces
  112. Blank Jones - Catch
  113. Renegade Masterz - Crystal Ship
  114. Heiko Maiko - Techno Rock
  115. Yomanda Emma Shapplin - Spente Le Stelle
  116. Prezioso feat. Marvin - Survival
  117. 2 Jays - Heartquake
  118. Anima Ladina - Extasy
  119. Lazard - Living On Video
  120. Floorfilla - Cyberdream
  121. Alex Megane - I Think Of You
  122. Groove Coverage - 21st Century Digital Girl
  123. Tobias Regner - I Still Burn
  124. Raveboy - Check My Beat
  125. P!nk - Who Knew
  126. Micky Modelle vs. Jessy - Dancing In The Dark
  127. Ceoma feat. The Larx - Love Is More
  128. P!nk - U & Ur Hand
  129. Groove Coverage - On The Radio
  130. Aycan - Devil In Disguise
  131. Bangbros - Bangjoy The Music
  132. Cascada - Love Again
  133. Basshunter - Boten Anna
  134. DJ Klubbingman - Ride On A White Train
  135. Spring Fever - Give Me More
  136. Cascada - Ready For Love
  137. Deep Spirit - The One That I Want
  138. Scooter - Rock Bottom
  139. Scooter - Apache Rocks The Bottom
Cue-Informationen:

FILE "filename.mp3" MP3
  TRACK 01 AUDIO
    INDEX 01 00:00:00
  TRACK 02 AUDIO
    INDEX 01 01:00:70
  TRACK 03 AUDIO
    INDEX 01 09:26:21
  TRACK 04 AUDIO
    INDEX 01 17:15:24
  TRACK 05 AUDIO
    INDEX 01 24:50:31
  TRACK 06 AUDIO
    INDEX 01 34:30:61
  TRACK 07 AUDIO
    INDEX 01 43:03:38
  TRACK 08 AUDIO
    INDEX 01 53:55:70
  TRACK 09 AUDIO
    INDEX 01 62:10:29
  TRACK 10 AUDIO
    INDEX 01 70:20:05
Wertung: (1)   Hinzugefügt: 28 November 2010
RSS Feed
RSS Feed
Sprache
Deutsch Englisch Französisch
Mixsuche
Suchbegriff
Genauer Wortlaut
Alle Worte (UND)
Ein Wort (ODER)
Statistik
14943 Mixe eingetragen
14627 Tracklisten
Newsletter
E-Mail
Anmelden
Abmelden
SPONSOREN