Mixkatalog
 Einloggen
Login
Passwort

The Yearmix Show 2005 Hits: 690  

The Yearmix Show 2005


Kurzbeschreibung:
Deep präsentiert The Yearmix Show 2005, gemixt von DJ Deep. Erschien auch unter dem Titel The Time Travel 2005.
 
Crew/DJ: Deep Reihe: Deep Yearmix
Stil: Dance Erscheinungsjahr: 2005
CDs: 1 Spielzeit: 79:31
Trackliste:
Cue-Informationen:

FILE "filename.mp3" MP3
  TRACK 01 AUDIO
    INDEX 01 00:00:00
  TRACK 02 AUDIO
    INDEX 01 00:27:32
  TRACK 03 AUDIO
    INDEX 01 09:51:58
  TRACK 04 AUDIO
    INDEX 01 21:17:35
  TRACK 05 AUDIO
    INDEX 01 31:18:67
  TRACK 06 AUDIO
    INDEX 01 42:06:66
  TRACK 07 AUDIO
    INDEX 01 48:18:72
  TRACK 08 AUDIO
    INDEX 01 56:45:70
  TRACK 09 AUDIO
    INDEX 01 64:37:16
  TRACK 10 AUDIO
    INDEX 01 72:13:69
Wertung: (6)  
Hinzugefügt: 28 November 2010
RSS Feed
RSS Feed
Sprache
Deutsch Englisch Französisch
Mixsuche
Suchbegriff
Genauer Wortlaut
Alle Worte (UND)
Ein Wort (ODER)
Statistik
29952 Mixe eingetragen
28322 Tracklisten
Newsletter
E-Mail
Anmelden
Abmelden
SPONSOREN