Mixkatalog
 Einloggen
Login
Passwort

Poolmix 1990-1999 3 Hits: 60  

Poolmix 1990-1999 3


Kurzbeschreibung:
DJ Pool präsentiert Poolmix 1990-1999 Volume 3.
 
Crew/DJ: DJ Pool Reihe: The 90s Mix
Stil: Dance Erscheinungsjahr: 2003
CDs: 1 Spielzeit: 71:58
Trackliste:
Cue-Informationen:

FILE "filename.mp3" MP3
  TRACK 01 AUDIO
    INDEX 01 00:00:00
  TRACK 02 AUDIO
    INDEX 01 00:41:40           
  TRACK 03 AUDIO
    INDEX 01 05:13:09           
  TRACK 04 AUDIO
    INDEX 01 09:22:68           
  TRACK 05 AUDIO
    INDEX 01 15:30:34          
  TRACK 06 AUDIO
    INDEX 01 19:00:02          
  TRACK 07 AUDIO
    INDEX 01 24:03:29         
  TRACK 08 AUDIO
    INDEX 01 29:03:27          
  TRACK 09 AUDIO
    INDEX 01 35:16:00           
  TRACK 10 AUDIO
    INDEX 01 40:11:67         
  TRACK 11 AUDIO
    INDEX 01 46:25:45        
  TRACK 12 AUDIO
    INDEX 01 50:08:48         
  TRACK 13 AUDIO
    INDEX 01 55:09:55           
  TRACK 14 AUDIO
    INDEX 01 60:32:04          
  TRACK 15 AUDIO
    INDEX 01 65:26:47         
  TRACK 16 AUDIO
    INDEX 01 69:19:16
Wertung: (3)  
Hinzugefügt: 15 October 2010
RSS Feed
RSS Feed
Sprache
Deutsch Englisch Französisch
Mixsuche
Suchbegriff
Genauer Wortlaut
Alle Worte (UND)
Ein Wort (ODER)
Statistik
34688 Mixe eingetragen
32809 Tracklisten
Newsletter
E-Mail
Anmelden
Abmelden
SPONSOREN