Mixkatalog
 Einloggen
Login
Passwort

Dr Mix Hits: 622  

Dr Mix


Kurzbeschreibung:
Shark & MTV Partyzone präsentieren Dr. Mix. Das Mysterium kehrt zurück Teil 3 (Soul & Funk 1979-1985).
 
Crew/DJ: Shark Reihe: Sonstige
Stil: Soul Erscheinungsjahr: 1995
CDs: 1 Spielzeit: 65:51
Trackliste:
Cue-Informationen:

FILE "filename.mp3" MP3
  TRACK 01 AUDIO
    INDEX 00 00:00:00
  TRACK 02 AUDIO
    INDEX 01 43:02:10
  TRACK 03 AUDIO
    INDEX 01 51:43:05
  TRACK 04 AUDIO
    INDEX 01 58:46:45
Wertung: (1)  
Hinzugefügt: 15 October 2010
RSS Feed
RSS Feed
Sprache
Deutsch Englisch Französisch
Mixsuche
Suchbegriff
Genauer Wortlaut
Alle Worte (UND)
Ein Wort (ODER)
Statistik
28762 Mixe eingetragen
27364 Tracklisten
Newsletter
E-Mail
Anmelden
Abmelden
SPONSOREN