Mixkatalog
 Einloggen
Login
Passwort

Beat-Mix 28 Hits: 977  

Beat-Mix 28


Kurzbeschreibung:
Ruhrpott Records präsentiert Beat Mix Volume 28, ...And The Beat Goes On! Gemixt von The King Of Mix.
 
Crew/DJ: Ruhrpott Records Reihe: Beat-Mix
Stil: Dance Erscheinungsjahr: 2010
CDs: 1 Spielzeit: 79:05
Trackliste:
Cue-Informationen:

FILE "filename.mp3" MP3
  TRACK 01 AUDIO
    INDEX 01 00:00:00
  TRACK 02 AUDIO
    INDEX 01 02:27:36
  TRACK 03 AUDIO
    INDEX 01 40:19:63
Wertung: (4)  
Hinzugefügt: 8 October 2010
RSS Feed
RSS Feed
Sprache
Deutsch Englisch Französisch
Mixsuche
Suchbegriff
Genauer Wortlaut
Alle Worte (UND)
Ein Wort (ODER)
Statistik
30210 Mixe eingetragen
28551 Tracklisten
Newsletter
E-Mail
Anmelden
Abmelden
SPONSOREN