Mixkatalog
 Einloggen
Login
Passwort

80er Oldies In The Mix Hits: 182  

80er Oldies In The Mix


Kurzbeschreibung:
Deep Heat präsentiert 80er Oldies In The Mix. Mix entspricht dem 8TNT 80s Megamix Volume 2.
 
Crew/DJ: Deep Heat Reihe: 80s Megamix
Stil: Pop Erscheinungsjahr: 2002
Anzahl Tonträger: 1 Spielzeit: 75:22
Trackliste:
Cue-Informationen:

FILE "filename.mp3" MP3
  TRACK 01 AUDIO
    INDEX 01 00:00:00
  TRACK 02 AUDIO
    INDEX 01 00:45:51
  TRACK 03 AUDIO
    INDEX 01 02:43:45
  TRACK 04 AUDIO
    INDEX 01 03:27:09
  TRACK 05 AUDIO
    INDEX 01 04:14:49
  TRACK 06 AUDIO
    INDEX 01 04:51:73
  TRACK 07 AUDIO
    INDEX 01 05:20:00
  TRACK 08 AUDIO
    INDEX 01 05:47:51
  TRACK 09 AUDIO
    INDEX 01 07:36:63
  TRACK 10 AUDIO
    INDEX 01 08:03:66
  TRACK 11 AUDIO
    INDEX 01 09:29:39
  TRACK 12 AUDIO
    INDEX 01 10:58:48
  TRACK 13 AUDIO
    INDEX 01 11:33:59
  TRACK 14 AUDIO
    INDEX 01 12:13:67
  TRACK 15 AUDIO
    INDEX 01 12:49:16
  TRACK 16 AUDIO
    INDEX 01 14:06:70
  TRACK 17 AUDIO
    INDEX 01 14:24:32
  TRACK 18 AUDIO
    INDEX 01 15:34:00
  TRACK 19 AUDIO
    INDEX 01 17:08:64
  TRACK 20 AUDIO
    INDEX 01 17:34:33
  TRACK 21 AUDIO
    INDEX 01 18:00:06
  TRACK 22 AUDIO
    INDEX 01 19:45:48
  TRACK 23 AUDIO
    INDEX 01 21:10:60
  TRACK 24 AUDIO
    INDEX 01 21:27:12
  TRACK 25 AUDIO
    INDEX 01 22:51:63
  TRACK 26 AUDIO
    INDEX 01 23:41:66
  TRACK 27 AUDIO
    INDEX 01 24:39:49
  TRACK 28 AUDIO
    INDEX 01 25:00:16
  TRACK 29 AUDIO
    INDEX 01 27:10:40
  TRACK 30 AUDIO
    INDEX 01 27:26:63
  TRACK 31 AUDIO
    INDEX 01 28:48:17
  TRACK 32 AUDIO
    INDEX 01 30:17:46
  TRACK 33 AUDIO
    INDEX 01 31:22:06
  TRACK 34 AUDIO
    INDEX 01 32:44:20
  TRACK 35 AUDIO
    INDEX 01 35:24:34
  TRACK 36 AUDIO
    INDEX 01 36:25:70
  TRACK 37 AUDIO
    INDEX 01 37:44:36
  TRACK 38 AUDIO
    INDEX 01 38:47:20
  TRACK 39 AUDIO
    INDEX 01 39:50:02
  TRACK 40 AUDIO
    INDEX 01 40:05:54
  TRACK 41 AUDIO
    INDEX 01 41:35:16
  TRACK 42 AUDIO
    INDEX 01 43:57:39
  TRACK 43 AUDIO
    INDEX 01 44:57:42
  TRACK 44 AUDIO
    INDEX 01 46:34:59
  TRACK 45 AUDIO
    INDEX 01 48:11:31
  TRACK 46 AUDIO
    INDEX 01 49:35:41
  TRACK 47 AUDIO
    INDEX 01 50:56:12
  TRACK 48 AUDIO
    INDEX 01 51:16:32
  TRACK 49 AUDIO
    INDEX 01 59:29:09
  TRACK 50 AUDIO
    INDEX 01 65:23:68
  TRACK 51 AUDIO
    INDEX 01 71:25:23
Wertung: (1)  
Hinzugefügt: 10 September 2010
RSS Feed
RSS Feed
Sprache
Deutsch Englisch Französisch
Mixsuche
Suchbegriff
Genauer Wortlaut
Alle Worte (UND)
Ein Wort (ODER)
Statistik
13329 Mixe eingetragen
13035 Tracklisten
Newsletter
E-Mail
Anmelden
Abmelden
SPONSOREN