Mixkatalog
 Einloggen
Login
Passwort

Gartenfeten Mix 02 Hits: 846  

Gartenfeten Mix 02


Kurzbeschreibung:
DJ Mischen präsentiert Gartenfeten Mix Volume 2.
 
Crew/DJ: DJ Mischen Reihe: Gartenfete
Stil: Party Erscheinungsjahr: 2009
CDs: 1 Spielzeit: 50:38
Trackliste:
Cue-Informationen:

FILE "filename.mp3" MP3
  TRACK 01 AUDIO
    INDEX 01 00:00:00
  TRACK 02 AUDIO
    INDEX 01 30:35:41
  TRACK 03 AUDIO
    INDEX 01 45:44:55
Wertung: (17)  
Hinzugefügt: 4 September 2010
RSS Feed
RSS Feed
Sprache
Deutsch Englisch Französisch
Mixsuche
Suchbegriff
Genauer Wortlaut
Alle Worte (UND)
Ein Wort (ODER)
Statistik
29581 Mixe eingetragen
28170 Tracklisten
Newsletter
E-Mail
Anmelden
Abmelden
SPONSOREN