Mixkatalog
 Einloggen
Login
Passwort

Deep Dance 001 + 002 Hits: 3  

Deep Dance 001 + 002


Kurzbeschreibung:
Deep Records präsentiert den ersten Deep Mix der Geschichte, ursprünglich als Kassette erschienen und später als CD nachgepresst. Ab hier beginnt die Deep Erfolgsstory. Wer die fehlenden Tracks kennt, bitte mitteilen.
 
Crew/DJ: Deep Records Reihe: DD Serie by Deep
Stil: Dance Erscheinungsjahr: 1989
Anzahl Tonträger: 1 Spielzeit: 74:03
Trackliste:
    Deep Dance Take 1:
    Spieldauer 21'08
  1. Intro
  2. Chanelle - One Man
  3. Hithouse - Jack To The Sound Of The Underground
  4. Hithouse - Move Your Feet To The Rhythm Of The Beat
  5. Adeva - Respect
  6. Paul Simpson - Musical Freedom (Free At Last)
  7. Inner City - Ain't Nobody Better
  8. Colonel Abrams - Music Is The Answer
  9. J.M. Silk - Music Is The Key
  10. Yazz - Where Has All The Love Gone?
  11. Coldcut feat. Lisa Stanfield - People Hold On
  12. E-Zee Possee - Everything Begins With An 'E'
  13. Raze - Break For Love
  14. Longsy D's House Sound - This Is Ska
  15. 2 Live Crew - Yakety Yak
  16. Kon Kan - I Beg Your Pardon
  17. Jerome Stocks - Baby I Need Your Lovin'
  18. Ten City - That's The Way Love Is (Steve 'Silk' Hurley Deep Mix)
  19. Kym Mazelle - Got To Get You Back
  20. The Blow Monkeys - Wait
  21. Maurice Joshua - This Is Acid
  22. Liaz - House Sensation
  23. The Beatmasters feat. M.C. Merlin - Who's In The House
  24. Fast Eddie - Yoyo Get Funky
  25. Tyree - Turn Up The Bass
    Deep Dance Take 2:
    Spieldauer 22'57
  26. Intro
  27. Stereo MC's - What Is Soul?
  28. Roxette - The Look
  29. Milli Vanilli - Baby Don't Forget My Number
  30. Sydney Youngblood - Congratulations
  31. The Cure - Lullaby
  32. Eric B. & Rakim - Paid In Full (Coldcut Remix)
  33. Soul II Soul - Keep On Movin'
  34. Bobby Brown - Don't Be Cruel
  35. Soulsister - Way To Your Heart
  36. Alyson Williams - My Love Is So Raw
  37. The S.O.S. Band - I'm Still Missing Your Love
  38. Geoffrey Williams - There's A Need In Me
  39. Fine Young Cannibals - She Drives Me Crazy
  40. Holly Johnson - Love Train
  41. Jody Watley - Real Love
  42. Bobby Brown - My Prerogative
  43. Karyn White - Secret Rendezvous
  44. Holly Johnson - Americanos
  45. Turntable Orchestra - You're Gonna Miss Me
  46. Madonna - Like A Prayer
  47. Paul Simpson feat. Adeva - Musical Freedom
  48. Madonna - Like A Prayer (12" Dance Mix)
  49. ???
  50. Paula Abdul - Straight Up
  51. Wally Jump Junior & The Criminal Element - Thieves
  52. Turntable Orchestra - You're Gonna Miss Me
  53. Outro
    DecaDance:
    Spieldauer 29'56
  54. Intro (E.L.O - Ticket To The Moon)
  55. Jermaine Stewart - We Don't Have To Take Our Clothes Off
  56. MC Miker G & DJ Sven - Holiday Rap
  57. Madonna - Holiday
  58. Level 42 - Lessons In Love
  59. Michael Jackson - Bad
  60. Talk Talk - Such A Shame
  61. Steve Arrington - Feel So Real
  62. Colonel Abrams - Trapped
  63. George Krantz - Din Daa Daa
  64. Kraftwerk - Musique Non-Stop
  65. Rock Master Scott & The Dynamic Three - Request Line
  66. Rick Astley - Together Forever
  67. Frankie Goes To Hollywood - Relax
  68. Shannon - Let The Music Play
  69. Toney Lee - Reach Up
  70. Sister Sledge - Lost In Music
  71. F.P.I. Project - Rich In Paradise
  72. Rob Base & DJ Eazy Rock - It Takes Two
  73. Indeep - Last Night A DJ Saved My Life
  74. Alexander O'Neal - Fake
  75. Matt Bianco - Wap Bam Boogie
  76. Tramaine - Fall Down
  77. Class Action - Weekend
  78. Pet Shop Boys - Domino Dancing
  79. Human League - Don't You Want Me
  80. Kool & The Gang - Fresh
  81. Paul Hardcastle - 19
  82. Whitney Houston - How Will I Know
  83. Harold Faltermeyer - Axel F.
  84. Oliver Cheatham - Get Down Saturday Night
  85. Miami Sound Machine - Dr. Beat
  86. Michael Jackson - Billie Jean
  87. Blackbox - Right On Time
  88. Hithouse - Jack To The Sound Of The Underground
  89. Fun Fun - Happy Station
  90. Freeez - I.O.U.
  91. Beatmasters - Rok Da House
  92. Steve Silk Hurley - Jack Your Body
  93. House Master Boyz - House Nation
  94. Madonna - Into The Groove
  95. Michael Jackson - Thriller
  96. Pet Shop Boys - Westend Girls
  97. Whitney Houston - I Wanna Dance With Somebody
  98. Stars On 45 - Stars On 45
  99. Silver Convention - Get Up & Boogie
  100. Technotronic - Pump Up The Jam
  101. Prince - 1999
  102. Desireless - Voyage Voyage
  103. Yazz - The Only Way Is Up
  104. Pet Shop Boys - Always On My Mind
  105. Yazoo - Don't Go
  106. Cutting Crew - I Just Died In Your Arms Tonight
  107. Depeche Mode - Just Can't Get Enough
  108. Real Life - Send Me An Angel
  109. Farley Jackmaster Funk - Love Can't Turn Around
  110. Trans X - Living On Video
  111. Divine - Shoot Your Shot
  112. New Order - Blue Monday
  113. Frankie Goes To Hollywood - Two Tribes
  114. Bronski Beat - Smalltown Boy
  115. Soft Cell - Tainted Love
Cue-Informationen:

FILE "filename.mp3" MP3
  TRACK 01 AUDIO
    INDEX 01 00:00:00
  TRACK 02 AUDIO
    INDEX 01 21:08:52
  TRACK 03 AUDIO
    INDEX 01 44:06:15
Wertung: (1)   Hinzugefügt: 7 May 2009
RSS Feed
RSS Feed
Sprache
Deutsch Englisch Französisch
Mixsuche
Suchbegriff
Genauer Wortlaut
Alle Worte (UND)
Ein Wort (ODER)
Statistik
14805 Mixe eingetragen
14492 Tracklisten
Newsletter
E-Mail
Anmelden
Abmelden
SPONSOREN