Mixkatalog
 Einloggen
Login
Passwort

Deep Dance 001 + 002 Hits: 261  

Deep Dance 001 + 002


Kurzbeschreibung:
Deep präsentiert den ersten Deep Mix der Geschichte, ursprünglich als Kassette erschienen und später als CD nachgepresst. Ab hier beginnt die Deep Erfolgsstory. Wer die fehlenden Tracks kennt, bitte mitteilen.
 
Crew/DJ: Deep Reihe: DD Serie by Deep
Stil: Dance Erscheinungsjahr: 1989
Anzahl Tonträger: 1 Spielzeit: 74:03
Trackliste:
Tracklist nicht öffentlich...
Cue-Informationen:

FILE "filename.mp3" MP3
  TRACK 01 AUDIO
    INDEX 01 00:00:00
  TRACK 02 AUDIO
    INDEX 01 21:08:52
  TRACK 03 AUDIO
    INDEX 01 44:06:15
Wertung: (5)  
Hinzugefügt: 7 May 2009
RSS Feed
RSS Feed
Sprache
Deutsch Englisch Französisch
Mixsuche
Suchbegriff
Genauer Wortlaut
Alle Worte (UND)
Ein Wort (ODER)
Statistik
12382 Mixe eingetragen
12100 Tracklisten
Newsletter
E-Mail
Anmelden
Abmelden
SPONSOREN