Mixkatalog
 Einloggen
Login
Passwort

Deep Dance 000½ Hits: 939  

Deep Dance 000½


Kurzbeschreibung:
Deep präsentiert The Real Deep Magic Dance 0,5 der Yearmix 1987 und 1988 wurde 1995 nachgemixt und als erster Deep Mix präsentiert. Gemixt von DJ Deep.
 
Crew/DJ: Deep Reihe: Deep Dance Serie
Stil: Dance Erscheinungsjahr: 1995
CDs: 2 Spielzeit: 153:47
Trackliste:
Cue-Informationen:

FILE "filename CD 01.mp3" MP3
  TRACK 01 AUDIO
    INDEX 01 00:00:00
  TRACK 02 AUDIO
    INDEX 01 01:35:24
  TRACK 03 AUDIO
    INDEX 01 01:55:23
  TRACK 04 AUDIO
    INDEX 01 03:08:02
  TRACK 05 AUDIO
    INDEX 01 03:48:31
  TRACK 06 AUDIO
    INDEX 01 05:07:31
  TRACK 07 AUDIO
    INDEX 01 05:45:03
  TRACK 08 AUDIO
    INDEX 01 06:24:20
  TRACK 09 AUDIO
    INDEX 01 06:43:66
  TRACK 10 AUDIO
    INDEX 01 07:50:42
  TRACK 11 AUDIO
    INDEX 01 08:28:01
  TRACK 12 AUDIO
    INDEX 01 10:21:22
  TRACK 13 AUDIO
    INDEX 01 11:09:49
  TRACK 14 AUDIO
    INDEX 01 13:15:41
  TRACK 15 AUDIO
    INDEX 01 14:56:14
  TRACK 16 AUDIO
    INDEX 01 15:43:34
  TRACK 17 AUDIO
    INDEX 01 17:43:15
  TRACK 18 AUDIO
    INDEX 01 19:12:28
  TRACK 19 AUDIO
    INDEX 01 20:16:45
  TRACK 20 AUDIO
    INDEX 01 20:45:58
  TRACK 21 AUDIO
    INDEX 01 21:58:72
  TRACK 22 AUDIO
    INDEX 01 22:36:46
  TRACK 23 AUDIO
    INDEX 01 24:17:14
  TRACK 24 AUDIO
    INDEX 01 25:36:47
  TRACK 25 AUDIO
    INDEX 01 26:38:27
  TRACK 26 AUDIO
    INDEX 01 28:09:43
  TRACK 27 AUDIO
    INDEX 01 29:33:70
  TRACK 28 AUDIO
    INDEX 01 30:09:32
  TRACK 29 AUDIO
    INDEX 01 30:48:65
  TRACK 30 AUDIO
    INDEX 01 31:37:69
  TRACK 31 AUDIO
    INDEX 01 33:07:12
  TRACK 32 AUDIO
    INDEX 01 34:26:29
  TRACK 33 AUDIO
    INDEX 01 35:04:12
  TRACK 34 AUDIO
    INDEX 01 36:02:70
  TRACK 35 AUDIO
    INDEX 01 37:18:20
  TRACK 36 AUDIO
    INDEX 01 38:29:46
  TRACK 37 AUDIO
    INDEX 01 39:03:11
  TRACK 38 AUDIO
    INDEX 01 40:19:30
  TRACK 39 AUDIO
    INDEX 01 40:44:32
  TRACK 40 AUDIO
    INDEX 01 41:22:02
  TRACK 41 AUDIO
    INDEX 01 42:02:01
  TRACK 42 AUDIO
    INDEX 01 42:42:29
  TRACK 43 AUDIO
    INDEX 01 43:38:26
  TRACK 44 AUDIO
    INDEX 01 44:37:56
  TRACK 45 AUDIO
    INDEX 01 46:17:09
  TRACK 46 AUDIO
    INDEX 01 47:51:35
  TRACK 47 AUDIO
    INDEX 01 49:36:18
  TRACK 48 AUDIO
    INDEX 01 51:00:51
  TRACK 49 AUDIO
    INDEX 01 52:32:74
  TRACK 50 AUDIO
    INDEX 01 54:34:28
  TRACK 51 AUDIO
    INDEX 01 56:18:13
  TRACK 52 AUDIO
    INDEX 01 57:22:18
  TRACK 53 AUDIO
    INDEX 01 57:53:73
  TRACK 54 AUDIO
    INDEX 01 59:06:44
  TRACK 55 AUDIO
    INDEX 01 60:46:74
  TRACK 56 AUDIO
    INDEX 01 61:52:54
  TRACK 57 AUDIO
    INDEX 01 63:11:73
  TRACK 58 AUDIO
    INDEX 01 63:58:52
  TRACK 59 AUDIO
    INDEX 01 65:03:10
  TRACK 60 AUDIO
    INDEX 01 66:54:34
  TRACK 61 AUDIO
    INDEX 01 69:17:36
  TRACK 62 AUDIO
    INDEX 01 70:36:20
  TRACK 63 AUDIO
    INDEX 01 71:13:63
  TRACK 64 AUDIO
    INDEX 01 74:04:05

FILE "filename CD 02.mp3" MP3
  TRACK 01 AUDIO
    INDEX 01 00:00:00
  TRACK 02 AUDIO
    INDEX 01 00:47:37
  TRACK 03 AUDIO
    INDEX 01 01:39:09
  TRACK 04 AUDIO
    INDEX 01 02:50:06
  TRACK 05 AUDIO
    INDEX 01 03:13:08
  TRACK 06 AUDIO
    INDEX 01 04:54:00
  TRACK 07 AUDIO
    INDEX 01 05:54:28
  TRACK 08 AUDIO
    INDEX 01 06:35:18
  TRACK 09 AUDIO
    INDEX 01 07:17:31
  TRACK 10 AUDIO
    INDEX 01 08:15:54
  TRACK 11 AUDIO
    INDEX 01 08:48:23
  TRACK 12 AUDIO
    INDEX 01 10:01:32
  TRACK 13 AUDIO
    INDEX 01 11:18:23
  TRACK 14 AUDIO
    INDEX 01 11:46:08
  TRACK 15 AUDIO
    INDEX 01 12:10:42
  TRACK 16 AUDIO
    INDEX 01 13:04:25
  TRACK 17 AUDIO
    INDEX 01 14:15:63
  TRACK 18 AUDIO
    INDEX 01 15:09:01
  TRACK 19 AUDIO
    INDEX 01 16:25:03
  TRACK 20 AUDIO
    INDEX 01 17:25:74
  TRACK 21 AUDIO
    INDEX 01 17:44:60
  TRACK 22 AUDIO
    INDEX 01 18:20:33
  TRACK 23 AUDIO
    INDEX 01 19:30:03
  TRACK 24 AUDIO
    INDEX 01 20:14:32
  TRACK 25 AUDIO
    INDEX 01 21:16:47
  TRACK 26 AUDIO
    INDEX 01 22:27:71
  TRACK 27 AUDIO
    INDEX 01 23:27:44
  TRACK 28 AUDIO
    INDEX 01 24:19:43
  TRACK 29 AUDIO
    INDEX 01 25:16:55
  TRACK 30 AUDIO
    INDEX 01 25:43:02
  TRACK 31 AUDIO
    INDEX 01 26:13:61
  TRACK 32 AUDIO
    INDEX 01 27:38:23
  TRACK 33 AUDIO
    INDEX 01 28:53:43
  TRACK 34 AUDIO
    INDEX 01 29:13:54
  TRACK 35 AUDIO
    INDEX 01 29:40:18
  TRACK 36 AUDIO
    INDEX 01 30:36:60
  TRACK 37 AUDIO
    INDEX 01 31:21:73
  TRACK 38 AUDIO
    INDEX 01 32:44:04
  TRACK 39 AUDIO
    INDEX 01 34:28:00
  TRACK 40 AUDIO
    INDEX 01 35:49:15
  TRACK 41 AUDIO
    INDEX 01 36:51:74
  TRACK 42 AUDIO
    INDEX 01 37:25:13
  TRACK 43 AUDIO
    INDEX 01 38:49:32
  TRACK 44 AUDIO
    INDEX 01 39:37:04
  TRACK 45 AUDIO
    INDEX 01 39:56:18
  TRACK 46 AUDIO
    INDEX 01 40:07:30
  TRACK 47 AUDIO
    INDEX 01 41:35:70
  TRACK 48 AUDIO
    INDEX 01 42:29:29
  TRACK 49 AUDIO
    INDEX 01 43:34:17
  TRACK 50 AUDIO
    INDEX 01 44:26:65
  TRACK 51 AUDIO
    INDEX 01 44:49:39
  TRACK 52 AUDIO
    INDEX 01 46:05:06
  TRACK 53 AUDIO
    INDEX 01 46:59:14
  TRACK 54 AUDIO
    INDEX 01 47:14:14
  TRACK 55 AUDIO
    INDEX 01 48:43:44
  TRACK 56 AUDIO
    INDEX 01 49:03:41
  TRACK 57 AUDIO
    INDEX 01 49:39:28
  TRACK 58 AUDIO
    INDEX 01 50:59:45
  TRACK 59 AUDIO
    INDEX 01 51:52:09
  TRACK 60 AUDIO
    INDEX 01 52:09:39
  TRACK 61 AUDIO
    INDEX 01 53:24:53
  TRACK 62 AUDIO
    INDEX 01 54:43:47
  TRACK 63 AUDIO
    INDEX 01 55:29:50
  TRACK 64 AUDIO
    INDEX 01 57:13:25
  TRACK 65 AUDIO
    INDEX 01 58:42:02
  TRACK 66 AUDIO
    INDEX 01 59:49:60
  TRACK 67 AUDIO
    INDEX 01 60:44:03
  TRACK 68 AUDIO
    INDEX 01 62:12:22
  TRACK 69 AUDIO
    INDEX 01 63:20:05
  TRACK 70 AUDIO
    INDEX 01 63:33:43
  TRACK 71 AUDIO
    INDEX 01 64:15:69
  TRACK 72 AUDIO
    INDEX 01 65:31:08
  TRACK 73 AUDIO
    INDEX 01 66:15:22
  TRACK 74 AUDIO
    INDEX 01 66:59:59
  TRACK 75 AUDIO
    INDEX 01 68:00:69
  TRACK 76 AUDIO
    INDEX 01 68:18:09
  TRACK 77 AUDIO
    INDEX 01 68:59:36
  TRACK 78 AUDIO
    INDEX 01 70:52:45
  TRACK 79 AUDIO
    INDEX 01 72:17:26
  TRACK 80 AUDIO
    INDEX 01 73:24:46
  TRACK 81 AUDIO
    INDEX 01 74:26:65
  TRACK 82 AUDIO
    INDEX 01 76:05:35
  TRACK 83 AUDIO
    INDEX 01 77:49:06
  TRACK 84 AUDIO
    INDEX 01 78:49:34
Wertung: (2)  
Hinzugefügt: 7 May 2009
RSS Feed
RSS Feed
Sprache
Deutsch Englisch Französisch
Mixsuche
Suchbegriff
Genauer Wortlaut
Alle Worte (UND)
Ein Wort (ODER)
Statistik
28762 Mixe eingetragen
27364 Tracklisten
Newsletter
E-Mail
Anmelden
Abmelden
SPONSOREN